[更早][欧美][恐怖][BD-1080P]夺命凶灵2Scanners.II.The.New.Order.1991.1080p.BluRay.x264.DD2.0-FGT6.43GB


  • administrators

    Scanners.II.The.New.Order.1991.1080p.BluRay.x264.DD2.0-FGT

    ◎译  名 夺命凶灵2

    ◎片  名 Scanners II: The New Order

    ◎年  代 1991

    ◎国  家 加拿大

    ◎类  别 动作/科幻/恐怖

    ◎语  言 英语

    ◎上映日期 1991-06-28

    ◎IMDb评分  5.2/10 from 1,938 users

    ◎IMDb链接  http://www.imdb.com/title/tt0102848/

    ◎豆瓣评分 6.2/10 from 39 users

    ◎豆瓣链接 http://movie.douban.com/subject/3095280/

    ◎片  长 104分钟

    ◎导  演 克里斯丁·杜瓦 Christian Duguay

    ◎主  演 David Hewlett

          德博拉·拉芬 Deborah Raffin

          Yvan Ponton

          Isabelle Mejias

          汤姆·巴特勒 Tom Butler

          劳尔·特鲁希洛 Raoul Trujillo

          瓦拉斯塔·瓦拉纳 Vlasta Vrana

          Murray Westgate

          Doris Petrie

          多萝蒂·贝里曼 Dorothée Berryman

          Michael Rudder

          David Francis

          Stephen Zarou

          Tom Harvey

          Jason Cavalier


    ◎简  介


      None



    Video
    ID                                       : 1
    Format                                   : AVC
    Format/Info                              : Advanced Video Codec
    Format profile                           : [email protected]
    Format settings, CABAC                   : Yes
    Format settings, ReFrames                : 4 frames
    Codec ID                                 : V_MPEG4/ISO/AVC
    Duration                                 : 1h 44mn
    Bit rate                                 : 8 020 Kbps
    Width                                    : 1 920 pixels
    Height                                   : 1 080 pixels
    Display aspect ratio                     : 16:9
    Frame rate mode                          : Constant
    Frame rate                               : 23.976 fps
    Color space                              : YUV
    Chroma subsampling                       : 4:2:0
    Bit depth                                : 8 bits
    Scan type                                : Progressive
    Bits/(Pixel*Frame)                       : 0.161
    Stream size                              : 5.84 GiB (91%)
    Writing library                          : x264 core 142 r2479 dd79a61
    Encoding settings                        : cabac=1 / ref=4 / deblock=1:0:0 / analyse=0x3:0x113 / me=umh / subme=7 / psy=1 / psy_rd=1.00:0.00 / mixed_ref=1 / me_range=16 / chroma_me=1 / trellis=1 / 8x8dct=1 / cqm=0 / deadzone=21,11 / fast_pskip=0 / chroma_qp_offset=-2 / threads=18 / lookahead_threads=3 / sliced_threads=0 / nr=0 / decimate=1 / interlaced=0 / bluray_compat=0 / constrained_intra=0 / bframes=3 / b_pyramid=2 / b_adapt=1 / b_bias=0 / direct=1 / weightb=1 / open_gop=0 / weightp=2 / keyint=250 / keyint_min=23 / scenecut=40 / intra_refresh=0 / rc_lookahead=40 / rc=crf / mbtree=1 / crf=20.0 / qcomp=0.60 / qpmin=0 / qpmax=69 / qpstep=4 / ip_ratio=1.40 / aq=1:1.00
    Language                                 : English
    Default                                  : No
    Forced                                   : No

    Audio
    ID                                       : 2
    Format                                   : AC-3
    Format/Info                              : Audio Coding 3
    Mode extension                           : CM (complete main)
    Format settings, Endianness              : Big
    Codec ID                                 : A_AC3
    Duration                                 : 1h 44mn
    Bit rate mode                            : Constant
    Bit rate                                 : 640 Kbps
    Channel(s)                               : 2 channels
    Channel positions                        : Front: L R
    Sampling rate                            : 48.0 KHz
    Compression mode                         : Lossy
    Stream size                              : 477 MiB (7%)
    Language                                 : English
    Default                                  : Yes
    Forced                                   : No







与 GuajGuaj社区 的连接断开,我们正在尝试重连,请耐心等待