[2016][欧美][惊悚][WEB-1080P][BT下载]薰衣草Lavender.2016.1080p.WEB-DL.DD5.1.H264-FGT3.2GB


  • administrators

    ◎译  名 薰衣草

    ◎片  名 Lavender

    ◎年  代 2016

    ◎国  家 加拿大/美国

    ◎类  别 惊悚

    ◎语  言 英语

    ◎上映日期 2016-04-18(翠贝卡电影节)

    ◎IMDb评分  5.3/10 from 480 users

    ◎IMDb链接  http://www.imdb.com/title/tt4680980/

    ◎豆瓣评分 5.0/10 from 30 users

    ◎豆瓣链接 https://movie.douban.com/subject/26438226/

    ◎BT之家整理 http://www.btbtt.co

    ◎片  长 92分钟

    ◎导  演 艾德·加斯·多内利 Ed Gass-Donnelly

    ◎主  演 艾比·考尼什 Abbie Cornish

          德蒙特·莫罗尼 Dermot Mulroney

          贾斯汀·朗 Justin Long

          迪亚哥·克莱特霍夫 Diego Klattenhoff


    ◎简  介


      When a photographer (Abbie Cornish) in a failing marriage suffers severe memory loss after a traumatic accident, strange clues among her photos suggest she may be responsible for the deaths of family members she never knew she had. Long plays a concerned psychiatrist who tries to help her recover lost memories.


    Video
    ID                                       : 1
    Format                                   : AVC
    Format/Info                              : Advanced Video Codec
    Format profile                           : [email protected]
    Format settings, CABAC                   : Yes
    Format settings, ReFrames                : 5 frames
    Format settings, GOP                     : N=1
    Codec ID                                 : V_MPEG4/ISO/AVC
    Duration                                 : 1h 32mn
    Bit rate                                 : 4 456 Kbps
    Width                                    : 1 904 pixels
    Height                                   : 788 pixels
    Display aspect ratio                     : 2.40:1
    Frame rate mode                          : Constant
    Frame rate                               : 23.976 (24000/1001) fps
    Color space                              : YUV
    Chroma subsampling                       : 4:2:0
    Bit depth                                : 8 bits
    Scan type                                : Progressive
    Bits/(Pixel*Frame)                       : 0.124
    Stream size                              : 2.88 GiB (90%)
    Title                                    : Lavender.2016.1080p.WEB-DL.DD5.1.H264-FGT
    Language                                 : English
    Default                                  : Yes
    Forced                                   : No
    Color range                              : Limited
    Color primaries                          : BT.709
    Transfer characteristics                 : BT.709
    Matrix coefficients                      : BT.709

    Audio
    ID                                       : 2
    Format                                   : AC-3
    Format/Info                              : Audio Coding 3
    Mode extension                           : CM (complete main)
    Format settings, Endianness              : Big
    Codec ID                                 : A_AC3
    Duration                                 : 1h 32mn
    Bit rate mode                            : Constant
    Bit rate                                 : 384 Kbps
    Channel(s)                               : 6 channels
    Channel positions                        : Front: L C R, Side: L R, LFE
    Sampling rate                            : 48.0 KHz
    Frame rate                               : 31.250 fps (1536 spf)
    Compression mode                         : Lossy
    Stream size                              : 255 MiB (8%)
    Title                                    : Lavender.2016.1080p.WEB-DL.DD5.1.H264-FGT
    Language                                 : English
    Default                                  : Yes
    Forced                                   : No

    Text
    ID                                       : 3
    Format                                   : UTF-8
    Codec ID                                 : S_TEXT/UTF8
    Codec ID/Info                            : UTF-8 Plain Text
    Language                                 : English
    Default                                  : Yes
    Forced                                   : No

    Menu
    00:00:00.000                             : en:Chapter 1
    00:11:24.684                             : en:Chapter 2
    00:20:12.211                             : en:Chapter 3
    00:30:45.844                             : en:Chapter 4
    00:40:11.409                             : en:Chapter 5
    00:51:54.111                             : en:Chapter 6
    01:00:56.653                             : en:Chapter 7
    01:12:15.331                             : en:Chapter 8
    01:21:33.889                             : en:Chapter 9
    01:27:43.258                             : en:Chapter 10






登录后回复
 

与 GuajGuaj社区 的连接断开,我们正在尝试重连,请耐心等待