[更早][欧美][喜剧][BD-1080P][BT下载]与女人们的对话/女人秘谈2005.1080p.BluRay.x264.DD5.1-FGT6.56GB


  • administrators

    Conversations.with.Other.Women.2005.1080p.BluRay.x264.DD5.1-FGT

    ◎译  名 与女人们的对话/女人秘谈

    ◎片  名 Conversations with Other Women

    ◎年  代 2005

    ◎国  家 英国/美国

    ◎类  别 喜剧/剧情/爱情

    ◎语  言 英语

    ◎上映日期 2005-09-02

    ◎IMDb评分  7.1/10 from 9,887 users

    ◎IMDb链接  http://www.imdb.com/title/tt0435623/

    ◎豆瓣评分 8.0/10 from 8,784 users

    ◎豆瓣链接 http://movie.douban.com/subject/1472510/

    ◎片  长 84 分钟

    ◎导  演 汉斯·卡诺萨 Hans Canosa

    ◎主  演 艾伦·艾克哈特 Aaron Eckhart

          海伦娜·邦汉·卡特 Helena Bonham Carter

          奥利维亚·王尔德 Olivia Wilde

          Yury Tsykun

          布莱恩·格拉格提 Brian Geraghty

          布兰娜·布朗 Brianna Brown

          托马斯·列农 Thomas Lennon

          Erik Eidem

          诺拉·泽特纳 Nora Zehetner


    ◎简  介


      岁月流逝,人生周转,见惯了爱人们的喜怒哀乐,不觉便看淡了婚礼上的信誓旦旦。失去的终将失去,一切都随风而逝,不触动一丝涟漪。

      在友人的婚礼上,男人(Aaron Eckhart 艾伦•艾克哈克 饰)与女人(Helena Bonham Carter海伦娜•博纳姆•卡特 饰)相遇。他们是一对分手多年的夫妻,血气方刚的年龄毁掉了原本海誓山盟的爱情,多年后再次见面,时光已销蚀青春的容颜,似乎那些原本不可饶恕的细节与片断也变得微不足道。然有些东西一旦撒手,便注定永远失去……

      本片荣获2005年东京电影节评审团特别奖、最佳女演员奖。


    ◎获奖情况


      第18届东京国际电影节 (2005)

      主竞赛单元 最佳影片(提名) 汉斯·卡诺萨

      主竞赛单元 评委会大奖 汉斯·卡诺萨

      主竞赛单元 最佳女演员 海伦娜·伯翰·卡特


    Video
    ID                                       : 1
    Format                                   : AVC
    Format/Info                              : Advanced Video Codec
    Format profile                           : [email protected]
    Format settings, CABAC                   : Yes
    Format settings, ReFrames                : 4 frames
    Codec ID                                 : V_MPEG4/ISO/AVC
    Duration                                 : 1h 25mn
    Bit rate                                 : 10.5 Mbps
    Width                                    : 1 920 pixels
    Height                                   : 1 080 pixels
    Display aspect ratio                     : 16:9
    Frame rate mode                          : Constant
    Frame rate                               : 24.000 fps
    Color space                              : YUV
    Chroma subsampling                       : 4:2:0
    Bit depth                                : 8 bits
    Scan type                                : Progressive
    Bits/(Pixel*Frame)                       : 0.212
    Stream size                              : 6.16 GiB (94%)
    Writing library                          : x264 core 67 r1145 d2e1e1c
    Encoding settings                        : cabac=1 / ref=4 / deblock=1:0:0 / analyse=0x3:0x113 / me=umh / subme=7 / psy_rd=1.0:0.0 / mixed_ref=1 / me_range=16 / chroma_me=1 / trellis=1 / 8x8dct=1 / cqm=0 / deadzone=21,11 / chroma_qp_offset=-2 / threads=6 / nr=0 / decimate=1 / mbaff=0 / bframes=3 / b_pyramid=1 / b_adapt=1 / b_bias=0 / direct=3 / wpredb=1 / keyint=250 / keyint_min=25 / scenecut=40 / rc=2pass / bitrate=10528 / ratetol=1.0 / qcomp=0.60 / qpmin=10 / qpmax=51 / qpstep=4 / cplxblur=20.0 / qblur=0.5 / ip_ratio=1.40 / pb_ratio=1.30 / aq=1:1.00
    Language                                 : English
    Default                                  : Yes
    Forced                                   : No

    Audio
    ID                                       : 2
    Format                                   : AC-3
    Format/Info                              : Audio Coding 3
    Mode extension                           : CM (complete main)
    Format settings, Endianness              : Big
    Codec ID                                 : A_AC3
    Duration                                 : 1h 25mn
    Bit rate mode                            : Constant
    Bit rate                                 : 448 Kbps
    Channel(s)                               : 6 channels
    Channel positions                        : Front: L C R, Side: L R, LFE
    Sampling rate                            : 48.0 KHz
    Frame rate                               : 31.250 fps (1536 spf)
    Compression mode                         : Lossy
    Stream size                              : 274 MiB (4%)
    Language                                 : English
    Default                                  : Yes
    Forced                                   : No







与 GuajGuaj社区 的连接断开,我们正在尝试重连,请耐心等待