[更早][欧美][动作][BD-1080P][BT下载]大江东去/不归河River.of.No.Reurn.1954.1080p.BluRay.x264.DTS-FGT7.16GB


  • administrators

    River.of.No.Return.1954.1080p.BluRay.x264.DTS-FGT

    ◎译  名 大江东去/不归河

    ◎片  名 River of No Return

    ◎年  代 1954

    ◎国  家 美国

    ◎类  别 动作/冒险/西部

    ◎语  言 英语

    ◎上映日期 1954-04-30

    ◎IMDb评分  6.7/10 from 7,355 users

    ◎IMDb链接  http://www.imdb.com/title/tt0047422/

    ◎豆瓣评分 7.6/10 from 1,008 users

    ◎豆瓣链接 http://movie.douban.com/subject/1293916/

    ◎片  长 91 分钟

    ◎导  演 奥托·普雷明格 Otto Preminger

    ◎主  演 罗伯特·米彻姆 Robert Mitchum

          玛丽莲·梦露 Marilyn Monroe


    ◎简  介


      玛丽莲·梦露与罗伯特·米契姆主演的西部文艺片。

      以淘金热时期的美国西北山区为背景,描写了两位主角患难相与的情感经历。

      全片男女主角的感情进展描写得甚有感染力,外景的拍摄也相当优美。

      本片背景是淘金热时代的美国西北山区——一名刚出狱的囚犯来到镇上接他的儿子回家,认识了照顾儿子的酒吧歌女,但也引起了歌女男友的怀疑。当获释的囚犯和儿子在农庄耕种时,歌女的男友前来寻衅,后来又偷了囚犯的枪和马,赶到矿区去淘金。歌女感到不忍心,留下来照顾囚犯。此时,印第安人前来突袭农庄,于是三人沿河流逃亡到镇上……


    Video
    ID                                       : 1
    Format                                   : AVC
    Format/Info                              : Advanced Video Codec
    Format profile                           : [email protected]
    Format settings, CABAC                   : Yes
    Format settings, ReFrames                : 5 frames
    Codec ID                                 : V_MPEG4/ISO/AVC
    Duration                                 : 1h 30mn
    Bit rate                                 : 9 768 Kbps
    Width                                    : 1 920 pixels
    Height                                   : 752 pixels
    Display aspect ratio                     : 2.553
    Frame rate mode                          : Constant
    Frame rate                               : 23.976 (24000/1001) fps
    Color space                              : YUV
    Chroma subsampling                       : 4:2:0
    Bit depth                                : 8 bits
    Scan type                                : Progressive
    Bits/(Pixel*Frame)                       : 0.282
    Stream size                              : 6.06 GiB (85%)
    Writing library                          : x264 core 125 r2208 d9d2288
    Encoding settings                        : cabac=1 / ref=5 / deblock=1:0:0 / analyse=0x3:0x113 / me=umh / subme=7 / psy=1 / psy_rd=1.00:0.00 / mixed_ref=1 / me_range=16 / chroma_me=1 / trellis=1 / 8x8dct=1 / cqm=0 / deadzone=21,11 / fast_pskip=0 / chroma_qp_offset=-2 / threads=12 / lookahead_threads=2 / sliced_threads=0 / nr=0 / decimate=1 / interlaced=0 / bluray_compat=0 / constrained_intra=0 / bframes=3 / b_pyramid=2 / b_adapt=1 / b_bias=0 / direct=1 / weightb=1 / open_gop=0 / weightp=2 / keyint=250 / keyint_min=23 / scenecut=40 / intra_refresh=0 / rc_lookahead=40 / rc=2pass / mbtree=1 / bitrate=9768 / ratetol=1.0 / qcomp=0.60 / qpmin=0 / qpmax=69 / qpstep=4 / cplxblur=20.0 / qblur=0.5 / ip_ratio=1.40 / aq=1:1.00
    Language                                 : English
    Default                                  : Yes
    Forced                                   : No

    Audio
    ID                                       : 2
    Format                                   : DTS
    Format/Info                              : Digital Theater Systems
    Mode                                     : 16
    Format settings, Endianness              : Big
    Codec ID                                 : A_DTS
    Duration                                 : 1h 30mn
    Bit rate mode                            : Constant
    Bit rate                                 : 1 509 Kbps
    Channel(s)                               : 6 channels
    Channel positions                        : Front: L C R, Side: L R, LFE
    Sampling rate                            : 48.0 KHz
    Frame rate                               : 93.750 fps (512 spf)
    Bit depth                                : 24 bits
    Compression mode                         : Lossy
    Stream size                              : 981 MiB (13%)
    Language                                 : English
    Default                                  : No
    Forced                                   : No

    Menu
    00:00:00.000                             : en:00:00:00.000
    00:02:51.797                             : en:00:02:51.797
    00:05:46.972                             : en:00:05:46.972
    00:07:45.423                             : en:00:07:45.423
    00:10:37.220                             : en:00:10:37.220
    00:11:30.648                             : en:00:11:30.648
    00:14:09.098                             : en:00:14:09.098
    00:17:19.872                             : en:00:17:19.872
    00:20:59.884                             : en:00:20:59.884
    00:24:14.078                             : en:00:24:14.078
    00:26:20.204                             : en:00:26:20.204
    00:27:48.667                             : en:00:27:48.667
    00:33:17.996                             : en:00:33:17.996
    00:36:52.377                             : en:00:36:52.377
    00:38:16.711                             : en:00:38:16.711
    00:40:26.049                             : en:00:40:26.049
    00:43:03.998                             : en:00:43:03.998
    00:47:35.478                             : en:00:47:35.478
    00:49:10.573                             : en:00:49:10.573
    00:51:24.832                             : en:00:51:24.832
    00:55:16.939                             : en:00:55:16.939
    00:57:43.460                             : en:00:57:43.460
    00:59:11.089                             : en:00:59:11.089
    01:01:21.553                             : en:01:01:21.553
    01:08:04.914                             : en:01:08:04.914
    01:11:42.131                             : en:01:11:42.131
    01:15:29.859                             : en:01:15:29.859
    01:18:13.105                             : en:01:18:13.105
    01:21:16.914                             : en:01:21:16.914
    01:23:52.527                             : en:01:23:52.527
    01:27:15.230                             : en:01:27:15.230
    01:29:35.787                             : en:01:29:35.787





登录后回复
 

与 GuajGuaj社区 的连接断开,我们正在尝试重连,请耐心等待