[2008][欧美][其他][BD-1080P][BT下载]Leonard.Cohen.Songs.From.The.Road.2008.1080p.BluRay.x264-KaKa4.37GB


  • administrators

    ◎译  名 HOMMAGEÀLEONARDCOHEN

    ◎片  名 Leonard Cohen: Everybody Knows

    ◎国  家 加拿大

    ◎语  言 英语/法语

    ◎上映日期 2008-11-09

    ◎IMDb评分  7.7/10 from 11 users

    ◎IMDb链接  http://www.imdb.com/title/tt1322335/

    ◎BT之家整理 http://www.btbtt.co 

    ◎导  演 Jocelyn Barnabé

    ◎主  演 Adam Cohen

          Lhasa、Garou、Thomas Hellman、Joe Lovano

          多萝蒂·贝里曼 Steven Page、Zachary Richard、Serena Ryder、Dorothée Berryman


    ◎简  介


      26 Jun 2008, Montréal, Canada.

      Festival International de Jazz de Montréal, Tribute to Leonard Cohen.



    Video
    ID                                       : 1
    Format                                   : AVC
    Format/Info                              : Advanced Video Codec
    Format profile                           : [email protected]
    Format settings, CABAC                   : Yes
    Format settings, ReFrames                : 4 frames
    Codec ID                                 : V_MPEG4/ISO/AVC
    Duration                                 : 1h 11mn
    Bit rate                                 : 8 063 Kbps
    Width                                    : 1 920 pixels
    Height                                   : 1 080 pixels
    Display aspect ratio                     : 16:9
    Frame rate mode                          : Constant
    Frame rate                               : 29.970 (30000/1001) fps
    Color space                              : YUV
    Chroma subsampling                       : 4:2:0
    Bit depth                                : 8 bits
    Scan type                                : Progressive
    Bits/(Pixel*Frame)                       : 0.130
    Stream size                              : 3.96 GiB (91%)
    Writing library                          : x264 core 105 r1732 2b04482
    Encoding settings                        : cabac=1 / ref=4 / deblock=1:-1:-1 / analyse=0x3:0x113 / me=umh / subme=7 / psy=1 / psy_rd=1.00:0.00 / mixed_ref=1 / me_range=16 / chroma_me=1 / trellis=1 / 8x8dct=1 / cqm=0 / deadzone=21,11 / fast_pskip=1 / chroma_qp_offset=-2 / threads=12 / sliced_threads=0 / nr=0 / decimate=1 / interlaced=0 / constrained_intra=0 / bframes=3 / b_pyramid=2 / b_adapt=2 / b_bias=0 / direct=3 / weightb=1 / open_gop=0 / weightp=2 / keyint=250 / keyint_min=25 / scenecut=40 / intra_refresh=0 / rc_lookahead=40 / rc=2pass / mbtree=1 / bitrate=8063 / ratetol=1.0 / qcomp=0.60 / qpmin=10 / qpmax=51 / qpstep=4 / cplxblur=20.0 / qblur=0.5 / vbv_maxrate=50000 / vbv_bufsize=50000 / ip_ratio=1.40 / aq=1:1.00 / nal_hrd=none
    Language                                 : English
    Default                                  : Yes
    Forced                                   : Yes

    Audio
    ID                                       : 2
    Format                                   : AC-3
    Format/Info                              : Audio Coding 3
    Mode extension                           : CM (complete main)
    Format settings, Endianness              : Big
    Codec ID                                 : A_AC3
    Duration                                 : 1h 11mn
    Bit rate mode                            : Constant
    Bit rate                                 : 640 Kbps
    Channel(s)                               : 6 channels
    Channel positions                        : Front: L C R, Side: L R, LFE
    Sampling rate                            : 48.0 KHz
    Frame rate                               : 31.250 fps (1536 spf)
    Compression mode                         : Lossy
    Stream size                              : 329 MiB (7%)
    Language                                 : English
    Default                                  : Yes
    Forced                                   : Yes






登录后回复
 

与 GuajGuaj社区 的连接断开,我们正在尝试重连,请耐心等待