[更早][欧美][恐怖][BD-1080P][BT下载]寂静尖叫The.Silen.Scream.1979.1080p.BluRay.x264.DTS-FGT7.88GB


  • administrators

    The.Silent.Scream.1979.1080p.BluRay.x264.DTS-FGT

    ◎译  名 寂静尖叫

    ◎片  名 The Silent Scream

    ◎年  代 1980

    ◎产  地 美国

    ◎类  别 恐怖/惊悚

    ◎语  言 英语

    ◎上映日期 1980-01-30

    ◎IMDb评分  6.0/10 from 985 users

    ◎IMDb链接  http://www.imdb.com/title/tt0081515/

    ◎BT之家整理 http://www.btbtt.co

    ◎片  长 87 分钟

    ◎导  演 Denny Harris


    ◎简  介


      Scotty moves into Mrs. Engels' seaside mansion where three other college students are boarding. Mrs. Engels prefers to stay in her room in the attic| but her sonMason helps the students get settled. Soon one of the students is killed. The policemen on the case begin uncovering the Engels family secret as the remainingstudents become endangered.


    Video
    ID                                       : 1
    Format                                   : AVC
    Format/Info                              : Advanced Video Codec
    Format profile                           : [email protected]
    Format settings, CABAC                   : Yes
    Format settings, ReFrames                : 4 frames
    Codec ID                                 : V_MPEG4/ISO/AVC
    Duration                                 : 1h 26mn
    Bit rate                                 : 11.5 Mbps
    Width                                    : 1 920 pixels
    Height                                   : 1 080 pixels
    Display aspect ratio                     : 16:9
    Frame rate mode                          : Constant
    Frame rate                               : 23.976 (24000/1001) fps
    Color space                              : YUV
    Chroma subsampling                       : 4:2:0
    Bit depth                                : 8 bits
    Scan type                                : Progressive
    Bits/(Pixel*Frame)                       : 0.231
    Stream size                              : 6.81 GiB (86%)
    Title                                    : The.Silent.Scream.1979.1080p.BluRay.x264.DTS-FGT
    Writing library                          : x264 core 148 r2694 3b70645
    Encoding settings                        : cabac=1 / ref=4 / deblock=1:-2:-2 / analyse=0x3:0x113 / me=umh / subme=9 / psy=1 / psy_rd=1.00:0.15 / mixed_ref=1 / me_range=16 / chroma_me=1 / trellis=2 / 8x8dct=1 / cqm=0 / deadzone=21,11 / fast_pskip=1 / chroma_qp_offset=-3 / threads=24 / lookahead_threads=3 / sliced_threads=0 / nr=0 / decimate=1 / interlaced=0 / bluray_compat=0 / constrained_intra=0 / bframes=3 / b_pyramid=2 / b_adapt=2 / b_bias=0 / direct=3 / weightb=1 / open_gop=0 / weightp=2 / keyint=250 / keyint_min=25 / scenecut=40 / intra_refresh=0 / rc_lookahead=50 / rc=abr / mbtree=1 / bitrate=11500 / ratetol=1.0 / qcomp=0.60 / qpmin=0 / qpmax=69 / qpstep=4 / vbv_maxrate=31250 / vbv_bufsize=31250 / nal_hrd=none / filler=0 / ip_ratio=1.40 / aq=1:1.00
    Language                                 : English
    Default                                  : Yes
    Forced                                   : No

    Audio
    ID                                       : 2
    Format                                   : DTS
    Format/Info                              : Digital Theater Systems
    Mode                                     : 16
    Format settings, Endianness              : Big
    Codec ID                                 : A_DTS
    Duration                                 : 1h 26mn
    Bit rate mode                            : Constant
    Bit rate                                 : 1 509 Kbps
    Channel(s)                               : 6 channels
    Channel positions                        : Front: L C R, Side: L R, LFE
    Sampling rate                            : 48.0 KHz
    Frame rate                               : 93.750 fps (512 spf)
    Bit depth                                : 24 bits
    Compression mode                         : Lossy
    Stream size                              : 937 MiB (12%)
    Title                                    : The.Silent.Scream.1979.1080p.BluRay.x264.DTS-FGT
    Language                                 : English
    Default                                  : Yes
    Forced                                   : No

    Menu
    00:00:00.000                             : en:Chapter 01
    00:03:51.773                             : en:Chapter 02
    00:09:40.538                             : en:Chapter 03
    00:18:23.268                             : en:Chapter 04
    00:24:09.906                             : en:Chapter 05
    00:31:56.706                             : en:Chapter 06
    00:38:23.592                             : en:Chapter 07
    00:43:59.178                             : en:Chapter 08
    00:52:45.245                             : en:Chapter 09
    00:57:33.992                             : en:Chapter 10
    01:02:38.755                             : en:Chapter 11
    01:07:58.115                             : en:Chapter 12
    01:15:02.080                             : en:Chapter 13
    01:20:21.817                             : en:Chapter 14
    01:24:34.027                             : en:Chapter 15







与 GuajGuaj社区 的连接断开,我们正在尝试重连,请耐心等待