[2011][欧美][喜剧][BD-1080P]宿醉2/醉后大丈夫2The.Hangover.Par.II.2011.1080p.BluRay.x264-SECTOR77.65GB


  • administrators

    The.Hangover.Part.II.2011.1080p.BluRay.x264-SECTOR7

    ◎译  名 宿醉2/醉后大丈夫2:醉加一等(台)/醉爆伴郎团2(港)/醉醒时分2

    ◎片  名 The Hangover Part II

    ◎年  代 2011

    ◎国  家 美国

    ◎类  别 喜剧

    ◎语  言 英语/泰语

    ◎上映日期 2011-05-26(美国)

    ◎IMDb评分  6.5/10 from 351,610 users

    ◎IMDb链接  http://www.imdb.com/title/tt1411697/

    ◎豆瓣评分 6.8/10 from 73,134 users

    ◎豆瓣链接 http://movie.douban.com/subject/3654340/

    ◎片  长 102分钟

    ◎导  演 托德·菲利普斯 Todd Phillips

    ◎主  演 布莱德利·库珀 Bradley Cooper

          扎克·加利凡纳基斯 Zach Galifianakis

          艾德·赫尔姆斯 Ed Helms

          杰米·钟 Jamie Chung

          贾斯汀·巴萨 Justin Bartha

          郑肯 Ken Jeong

          托德·菲利普斯 Todd Phillips

          迈克·泰森 Mike Tyson

          李淳 Mason Lee


    ◎简  介


      《宿醉2》由原班人马打造,延续上集的搞笑风格。上集中经历了情感纠葛的Stu (艾德赫尔·姆斯 Ed Helms 饰)这集中新婚,众好友Phil(布莱德利·库珀 Bradley Cooper 饰)、Alan(扎克·加利费安纳基斯 Zach Galifianakis 饰)和 Doug(贾斯汀·巴萨 Justin Bartha饰)前去泰国参加他的婚礼。不料宿醉事件又发生了,一帮兄弟醒来后发现身在曼谷,并且新娘的弟弟(李淳 饰)神秘失踪,亚洲黑帮“周先生”(肯·郑 Ken Jeong 饰)突然出现,于是一场疯狂冒险在异国又卷土重来!

      值得一提的是李安的儿子李淳在片中饰演了新娘的弟弟,一名成绩优秀的高材生。


    ◎获奖情况


      第32届金酸莓奖 (2012)

      最差男配角(提名) 肯·郑

      最差前传、重拍、恶搞及续集电影(提名)


      第21届MTV电影奖 (2012)

      MTV电影奖 最佳喜剧表演(提名) 扎克·加利凡纳基斯


      第13届美国青少年选择奖 (2011)

      最佳喜剧片男演员(提名) 艾德·赫尔姆斯 / 扎克·加利凡纳基斯

      最抢戏电影男星(提名) 肯·郑

      最抢戏电影女星(提名) 水晶

      最佳银幕拍档(提名) 扎克·加利凡纳基斯 / 布莱德利·库珀 / 艾德·赫尔姆斯

      Choice Movie: Hissy Fit 艾德·赫尔姆斯



    Video
    ID                                       : 1
    Format                                   : AVC
    Format/Info                              : Advanced Video Codec
    Format profile                           : [email protected]
    Format settings, CABAC                   : Yes
    Format settings, ReFrames                : 5 frames
    Codec ID                                 : V_MPEG4/ISO/AVC
    Duration                                 : 1h 41mn
    Bit rate                                 : 9 246 Kbps
    Width                                    : 1 920 pixels
    Height                                   : 800 pixels
    Display aspect ratio                     : 2.40:1
    Frame rate mode                          : Constant
    Frame rate                               : 23.976 fps
    Color space                              : YUV
    Chroma subsampling                       : 4:2:0
    Bit depth                                : 8 bits
    Scan type                                : Progressive
    Bits/(Pixel*Frame)                       : 0.251
    Stream size                              : 6.42 GiB (84%)
    Writing library                          : x264 core 119 r2106 07efeb4
    Encoding settings                        : cabac=1 / ref=5 / deblock=1:0:0 / analyse=0x3:0x133 / me=umh / subme=8 / psy=1 / psy_rd=1.00:0.00 / mixed_ref=1 / me_range=16 / chroma_me=1 / trellis=1 / 8x8dct=1 / cqm=0 / deadzone=21,11 / fast_pskip=0 / chroma_qp_offset=-2 / threads=18 / sliced_threads=0 / nr=0 / decimate=1 / interlaced=0 / bluray_compat=0 / constrained_intra=0 / bframes=3 / b_pyramid=2 / b_adapt=1 / b_bias=0 / direct=1 / weightb=1 / open_gop=0 / weightp=2 / keyint=240 / keyint_min=24 / scenecut=40 / intra_refresh=0 / rc_lookahead=40 / rc=2pass / mbtree=1 / bitrate=9246 / ratetol=1.0 / qcomp=0.60 / qpmin=0 / qpmax=69 / qpstep=4 / cplxblur=20.0 / qblur=0.5 / ip_ratio=1.40 / aq=1:1.00
    Language                                 : English
    Default                                  : Yes
    Forced                                   : No

    Audio
    ID                                       : 2
    Format                                   : DTS
    Format/Info                              : Digital Theater Systems
    Mode                                     : 16
    Format settings, Endianness              : Big
    Codec ID                                 : A_DTS
    Duration                                 : 1h 41mn
    Bit rate mode                            : Constant
    Bit rate                                 : 1 509 Kbps
    Channel(s)                               : 6 channels
    Channel positions                        : Front: L C R, Side: L R, LFE
    Sampling rate                            : 48.0 KHz
    Bit depth                                : 24 bits
    Compression mode                         : Lossy
    Stream size                              : 1.07 GiB (14%)
    Title                                    : english
    Language                                 : English
    Default                                  : Yes
    Forced                                   : No







登录后回复
 

与 GuajGuaj社区 的连接断开,我们正在尝试重连,请耐心等待