[2009][欧美][犯罪][BD-1080P][BT下载]高品质生活High.Life.2009.1080p.BluRay.x264-TWiZTED6.56GB


  • administrators

    ◎译  名 高品质生活

    ◎片  名 High Life

    ◎年  代 2009

    ◎国  家 加拿大

    ◎类  别 喜剧/犯罪

    ◎语  言 英语

    ◎上映日期 2009年12月28日

    ◎IMDb评分  6.2/10 from 2,885 users

    ◎IMDb链接  http://www.imdb.com/title/tt1143110/

    ◎豆瓣评分 6.6/10 from 270 users

    ◎豆瓣链接 https://movie.douban.com/subject/3750856/

    ◎BT之家整理 http://www.btbtt.co

    ◎片  长 79分钟

    ◎导  演 Gary Yates

    ◎主  演 乔·安德森 Joe Anderson

          蒂莫西·奥利芬特 Timothy Olyphant


    ◎简  介


      故事发生在1983年,绝望的吸毒上瘾者Dick遇见了久违的前遇有Bug。Bug由于长期在监狱,请求Dick给他补习80年代的新音乐知识、新社会知识以及介绍他从没见过的自动取款机。在这个过程中,绝望中的Dick也想起一个谋生的好点子。



    Video
    ID                                       : 1
    Format                                   : AVC
    Format/Info                              : Advanced Video Codec
    Format profile                           : [email protected]
    Format settings, CABAC                   : Yes
    Format settings, ReFrames                : 4 frames
    Codec ID                                 : V_MPEG4/ISO/AVC
    Duration                                 : 1h 18mn
    Bit rate                                 : 10.4 Mbps
    Width                                    : 1 920 pixels
    Height                                   : 1 080 pixels
    Display aspect ratio                     : 16:9
    Frame rate mode                          : Constant
    Frame rate                               : 23.976 (24000/1001) fps
    Color space                              : YUV
    Chroma subsampling                       : 4:2:0
    Bit depth                                : 8 bits
    Scan type                                : Progressive
    Bits/(Pixel*Frame)                       : 0.210
    Stream size                              : 5.60 GiB (85%)
    Writing library                          : x264 core 115 r2008 4c552d8
    Encoding settings                        : cabac=1 / ref=4 / deblock=1:0:0 / analyse=0x3:0x133 / me=umh / subme=9 / psy=1 / psy_rd=1.00:0.00 / mixed_ref=1 / me_range=16 / chroma_me=1 / trellis=2 / 8x8dct=1 / cqm=0 / deadzone=21,11 / fast_pskip=0 / chroma_qp_offset=-2 / threads=18 / sliced_threads=0 / nr=0 / decimate=1 / interlaced=0 / bluray_compat=0 / constrained_intra=0 / bframes=3 / b_pyramid=2 / b_adapt=2 / b_bias=0 / direct=3 / weightb=1 / open_gop=0 / weightp=2 / keyint=250 / keyint_min=23 / scenecut=40 / intra_refresh=0 / rc_lookahead=50 / rc=2pass / mbtree=1 / bitrate=10416 / ratetol=1.0 / qcomp=0.60 / qpmin=0 / qpmax=69 / qpstep=4 / cplxblur=20.0 / qblur=0.5 / ip_ratio=1.40 / aq=1:1.00
    Language                                 : English
    Default                                  : Yes
    Forced                                   : No

    Audio
    ID                                       : 2
    Format                                   : DTS
    Format/Info                              : Digital Theater Systems
    Mode                                     : 16
    Format settings, Endianness              : Big
    Codec ID                                 : A_DTS
    Duration                                 : 1h 18mn
    Bit rate mode                            : Constant
    Bit rate                                 : 1 509 Kbps
    Channel(s)                               : 6 channels
    Channel positions                        : Front: L C R, Side: L R, LFE
    Sampling rate                            : 48.0 KHz
    Frame rate                               : 93.750 fps (512 spf)
    Bit depth                                : 16 bits
    Compression mode                         : Lossy
    Stream size                              : 850 MiB (13%)
    Title                                    : English DTS 1509kbps
    Language                                 : English
    Default                                  : Yes
    Forced                                   : No







与 GuajGuaj社区 的连接断开,我们正在尝试重连,请耐心等待