[2015][欧美][剧情][Remux]你相信么?Do.You.Believe.2015.1080p.BluRay.REMUX.AVC.DD5.1-RARBG15.02GB


  • administrators

    ◎译  名 你相信么?

    ◎片  名 Do You Believe?

    ◎年  代 2015

    ◎国  家 美国

    ◎类  别 剧情

    ◎语  言 英语

    ◎上映日期 2015-03-20(美国)

    ◎IMDb评分  5.2/10 from 2,277 users

    ◎IMDb链接  http://www.imdb.com/title/tt4056738/

    ◎豆瓣评分 7.3/10 from 13 users

    ◎豆瓣链接 http://movie.douban.com/subject/26276950/

    ◎导  演 Jonathan M. Gunn

    ◎主  演 Ted McGinley

          米拉·索维诺 Mira Sorvino

          Andrea Logan White

          李·迈杰斯 Lee Majors


    ◎简  介


      十二个不同的灵魂在世界各个地方游荡,他们都渴望获取更多。随着生命的意外相交,他们每个人都将会发现基督的十字架力量……即使他们仍旧不相信它。一位当地牧师被一位年老的街头传教士的信心所撼动,他开始领悟到真正的信仰是需要行动的。这位牧师点燃了自己的信仰旅程,并以上帝的旨意来作工把这种信仰的感动传递给每一个人。这不仅仅是一部电影,同时也是一个我们人生中必须回答的问题:你相信上帝吗?


    • Video

    • ID                                       : 1

    • Format                                   : AVC

    • Format/Info                              : Advanced Video Codec

    • Format profile                           : [email protected]

    • Format settings, CABAC                   : Yes

    • Format settings, ReFrames                : 4 frames

    • Codec ID                                 : V_MPEG4/ISO/AVC

    • Duration                                 : 2h 0mn

    • Bit rate mode                            : Constant

    • Nominal bit rate                         : 16.0 Mbps

    • Width                                    : 1 920 pixels

    • Height                                   : 1 080 pixels

    • Display aspect ratio                     : 16:9

    • Frame rate mode                          : Constant

    • Frame rate                               : 23.976 fps

    • Standard                                 : NTSC

    • Color space                              : YUV

    • Chroma subsampling                       : 4:2:0

    • Bit depth                                : 8 bits

    • Scan type                                : Progressive

    • Bits/(Pixel*Frame)                       : 0.322

    • Title                                    : Do.You.Believe.2015.1080p.BluRay.REMUX.AVC.DD5.1-RARBG

    • Language                                 : English

    • Default                                  : No

    • Forced                                   : No

    • Color range                              : Limited

    • Color primaries                          : BT.709

    • Transfer characteristics                 : BT.709

    • Matrix coefficients                      : BT.709


    • Audio #1

    • ID                                       : 2

    • Format                                   : AC-3

    • Format/Info                              : Audio Coding 3

    • Mode extension                           : CM (complete main)

    • Format settings, Endianness              : Big

    • Codec ID                                 : A_AC3

    • Duration                                 : 2h 0mn

    • Bit rate mode                            : Constant

    • Bit rate                                 : 448 Kbps

    • Channel(s)                               : 6 channels

    • Channel positions                        : Front: L C R, Side: L R, LFE

    • Sampling rate                            : 48.0 KHz

    • Compression mode                         : Lossy

    • Stream size                              : 385 MiB (3%)

    • Title                                    : Do.You.Believe.2015.1080p.BluRay.REMUX.AVC.DD5.1-RARBG

    • Language                                 : English

    • Default                                  : Yes

    • Forced                                   : No


    • Audio #2

    • ID                                       : 3

    • Format                                   : AC-3

    • Format/Info                              : Audio Coding 3

    • Mode extension                           : CM (complete main)

    • Format settings, Endianness              : Big

    • Codec ID                                 : A_AC3

    • Duration                                 : 2h 0mn

    • Bit rate mode                            : Constant

    • Bit rate                                 : 448 Kbps

    • Channel(s)                               : 6 channels

    • Channel positions                        : Front: L C R, Side: L R, LFE

    • Sampling rate                            : 48.0 KHz

    • Compression mode                         : Lossy

    • Stream size                              : 385 MiB (3%)

    • Title                                    : Do.You.Believe.2015.1080p.BluRay.REMUX.AVC.DD5.1-RARBG

    • Language                                 : Spanish

    • Default                                  : No

    • Forced                                   : No


    • Audio #3

    • ID                                       : 4

    • Format                                   : PCM

    • Codec ID                                 : A_PCM/INT/LIT

    • Duration                                 : 2h 0mn

    • Bit rate mode                            : Constant

    • Channel(s)                               : 2 channels

    • Sampling rate                            : 48.0 KHz

    • Bit depth                                : 16 bits

    • Title                                    : Do.You.Believe.2015.1080p.BluRay.REMUX.AVC.DD5.1-RARBG

    • Language                                 : English

    • Default                                  : No

    • Forced                                   : No


    • Text #1

    • ID                                       : 5

    • Format                                   : PGS

    • Muxing mode                              : zlib

    • Codec ID                                 : S_HDMV/PGS

    • Codec ID/Info                            : Picture based subtitle format used on BDs/HD-DVDs

    • Language                                 : English

    • Default                                  : No

    • Forced                                   : No


    • Text #2

    • ID                                       : 6

    • Format                                   : PGS

    • Muxing mode                              : zlib

    • Codec ID                                 : S_HDMV/PGS

    • Codec ID/Info                            : Picture based subtitle format used on BDs/HD-DVDs

    • Language                                 : Spanish

    • Default                                  : No

    • Forced                                   : No


    • Menu

    • 00:00:00.000                             : en:Chapter 01

    • 00:05:16.441                             : en:Chapter 02

    • 00:09:31.529                             : en:Chapter 03

    • 00:14:06.512                             : en:Chapter 04

    • 00:18:50.462                             : en:Chapter 05

    • 00:24:47.110                             : en:Chapter 06

    • 00:28:54.441                             : en:Chapter 07

    • 00:34:18.014                             : en:Chapter 08

    • 00:40:15.871                             : en:Chapter 09

    • 00:44:27.790                             : en:Chapter 10

    • 00:51:09.733                             : en:Chapter 11

    • 00:56:46.820                             : en:Chapter 12

    • 01:01:52.458                             : en:Chapter 13

    • 01:07:11.610                             : en:Chapter 14

    • 01:12:55.412                             : en:Chapter 15

    • 01:19:45.238                             : en:Chapter 16

    • 01:24:28.438                             : en:Chapter 17

    • 01:32:46.519                             : en:Chapter 18

    • 01:42:14.169                             : en:Chapter 19

    • 01:52:16.771                             : en:Chapter 20







登录后回复
 

与 GuajGuaj社区 的连接断开,我们正在尝试重连,请耐心等待