[更早][欧美][剧情][BD-1080P][BT下载]烽火赤焰万里情/赤色分子Reds.1981.Par.1.1080p.BluRay.x264-LCHD6.56GB


  • administrators

    Reds.1981.Part.1.1080p.BluRay.x264-LCHD

    ◎译  名 烽火赤焰万里情/赤色分子/乱世情天(港)/烽火赤焰万里情(台)

    ◎片  名 Reds

    ◎年  代 1981

    ◎国  家 美国

    ◎类  别 传记/剧情/历史/爱情

    ◎语  言 英语/俄语/德语/法语/芬兰语

    ◎上映日期 1981-12-04

    ◎IMDb评分  7.5/10 from 15,992 users

    ◎IMDb链接  http://www.imdb.com/title/tt0082979/

    ◎豆瓣评分 8.1/10 from 759 users

    ◎豆瓣链接 https://movie.douban.com/subject/1292891/

    ◎BT之家整理 http://www.btbtt.co

    ◎片  长 194 分钟

    ◎导  演 沃伦·比蒂 Warren Beatty

    ◎主  演 沃伦·比蒂 Warren Beatty

          黛安·基顿 Diane Keaton

          杰克·尼科尔森 Jack Nicholson

          爱德华·赫曼 Edward Herrmann

          玛伦·斯塔普莱顿 Maureen Stapleton

          吉恩·哈克曼 Gene Hackman


    ◎简  介


      二十年代初期,响往共产主义的美国名记者约翰·雷德千方百计跑到十月革命之后的苏俄体验生活,追求理想的政治国度,并写出了轰动世界的报导文学《震动世界的十天》。然而,他最后对共产主义彻底失望,重回自由世界。

      电影摘要:   第一幕:雷德和露易丝·布莱恩特在波特兰相遇。   第二幕:20世纪10年代在格林威治村的知识分子生活。雷德和露易丝被尤金·奥尼尔和艾玛·高曼等思想家吸引。   第三幕:雷德和露易丝接受俄国革命的影响。   第四幕:雷德试图在美国建立共产党。   第五幕:雷德来到俄国接受布尔什维克的帮助宣传社会主义。1920年雷德去世,年仅32岁。   五个部分充满了乱糟糟的争吵,换句话说,这很难让你对这段历史激起足够的兴趣。在第一部分,观众必须容忍长时间谄媚性的诱导。在这之后,则是雷德和露易丝一段奇怪的爱情:当他们彼此凝视,伴随着革命的高潮和八十年庸俗的音乐,这对恋人的爱情似乎也达到了顶点。第二部分似乎值得一看,事实上,如果影片在这个间断之前结束的话,会比现在这个版本好的多,因为工人运动造成的气氛足以充实这部电影。也许沃伦·比蒂想得太多了,而且多是西方社会对苏联幻觉式的认知,所以才造就了这只嘈杂的万花筒。


    ◎获奖情况


      第54届奥斯卡金像奖  (1982)

      最佳影片(提名) 沃伦·比蒂

      最佳导演 沃伦·比蒂

      最佳男主角(提名) 沃伦·比蒂

      最佳女主角(提名) 黛安·基顿

      最佳男配角(提名) 杰克·尼科尔森

      最佳女配角 玛伦·斯塔普莱顿

      最佳原创剧本(提名) Trevor Griffiths / 沃伦·比蒂

      最佳摄影 维托里奥·斯托拉罗

      最佳剪辑(提名) 戴迪·艾伦 / Craig McKay

      最佳音响(提名) Tom Fleischman / Simon Kaye / Dick Vorisek

      最佳美术指导(提名) Richard Sylbert / Michael Seirton

      最佳服装设计(提名) 雪莉·拉塞尔


    Video
    ID                                       : 1
    Format                                   : AVC
    Format/Info                              : Advanced Video Codec
    Format profile                           : [email protected]
    Format settings, CABAC                   : Yes
    Format settings, ReFrames                : 4 frames
    Codec ID                                 : V_MPEG4/ISO/AVC
    Duration                                 : 1h 43mn
    Bit rate                                 : 8 392 Kbps
    Width                                    : 1 920 pixels
    Height                                   : 1 080 pixels
    Display aspect ratio                     : 16:9
    Frame rate mode                          : Constant
    Frame rate                               : 23.976 (24000/1001) fps
    Color space                              : YUV
    Chroma subsampling                       : 4:2:0
    Bit depth                                : 8 bits
    Scan type                                : Progressive
    Bits/(Pixel*Frame)                       : 0.169
    Stream size                              : 5.97 GiB (91%)
    Title                                    : Reds.1981.Part.1.1080p.BluRay.x264-LCHD
    Writing library                          : x264 core 79 r1360 528c100
    Encoding settings                        : cabac=1 / ref=4 / deblock=1:-1:-1 / analyse=0x3:0x113 / me=umh / subme=7 / psy=1 / psy_rd=1.0:0.0 / mixed_ref=1 / me_range=16 / chroma_me=1 / trellis=2 / 8x8dct=1 / cqm=0 / deadzone=21,11 / chroma_qp_offset=-2 / threads=6 / nr=0 / decimate=1 / mbaff=0 / constrained_intra=0 / bframes=3 / b_pyramid=0 / b_adapt=2 / b_bias=0 / direct=3 / wpredb=1 / wpredp=2 / keyint=250 / keyint_min=25 / scenecut=40 / rc_lookahead=40 / rc=2pass / mbtree=1 / bitrate=8392 / ratetol=1.0 / qcomp=0.60 / qpmin=10 / qpmax=51 / qpstep=4 / cplxblur=20.0 / qblur=0.5 / vbv_maxrate=50000 / vbv_bufsize=50000 / ip_ratio=1.40 / aq=1:1.00
    Language                                 : English
    Default                                  : Yes
    Forced                                   : No

    Audio
    ID                                       : 2
    Format                                   : AC-3
    Format/Info                              : Audio Coding 3
    Mode extension                           : CM (complete main)
    Format settings, Endianness              : Big
    Codec ID                                 : A_AC3
    Duration                                 : 1h 43mn
    Bit rate mode                            : Constant
    Bit rate                                 : 640 Kbps
    Channel(s)                               : 6 channels
    Channel positions                        : Front: L C R, Side: L R, LFE
    Sampling rate                            : 48.0 KHz
    Frame rate                               : 31.250 fps (1536 spf)
    Compression mode                         : Lossy
    Stream size                              : 476 MiB (7%)
    Title                                    : English Original AC3 48000Hz 6ch 640Kbps
    Language                                 : English
    Default                                  : No
    Forced                                   : No

    Text
    ID                                       : 3
    Format                                   : UTF-8
    Codec ID                                 : S_TEXT/UTF8
    Codec ID/Info                            : UTF-8 Plain Text
    Language                                 : English
    Default                                  : Yes
    Forced                                   : No








与 GuajGuaj社区 的连接断开,我们正在尝试重连,请耐心等待