[2012][欧美][喜剧][BD-1080P][BT下载]埃迪:梦游食人族Eddie.2012.1080p.BluRay.x264-NOSCREENS5.46GB


  • administrators

    ◎译  名 埃迪:梦游食人族

    ◎片  名 Eddie: The Sleepwalking Cannibal

    ◎年  代 2012

    ◎国  家 加拿大

    ◎类  别 喜剧/恐怖

    ◎语  言 英语

    ◎上映日期 2012-07-12(丹麦)

    ◎IMDb评分  5.7/10 from 1,241 users

    ◎IMDb链接  http://www.imdb.com/title/tt1480658/

    ◎豆瓣评分 4.5/10 from 112 users

    ◎豆瓣链接 https://movie.douban.com/subject/3898741/

    ◎BT之家整理 http://www.btbtt.co

    ◎片  长 90分钟

    ◎导  演 Boris Rodriguez

    ◎主  演 托尔·林德哈特 Thure Lindhardt

          乔吉娜·瑞利 Georgina Reilly

          Dylan Smith


    ◎简  介


      曾经小有名气的画家拉斯·奥拉芬(Thure Lindhardt 饰)来到一处不知名小镇的艺术学校任教,似乎有意逃避曾经的风光,又似乎等待缪斯女神的再此眷顾。当地冷漠、突兀的人情让他一度无所适从,但是那个身材高大、沉默寡言同时有着较高艺术天赋的学生艾迪(Dylan Smith 饰)让拉斯些许找到了认同感。在校长的拜托下,拉斯同意接艾迪过来和自己居住。谁知当晚,拉斯目睹艾迪梦游出屋,生吃了小兔子。原来学校早已知情,为了留住艾迪背后的赞助源而隐瞒他的病情。与此同时,艾迪的乖张举止似乎激发了拉斯久违的创作灵感。

      有人被吃没什么了不起,只要你能打扫干净……


    Video
    ID                                       : 1
    Format                                   : AVC
    Format/Info                              : Advanced Video Codec
    Format profile                           : [email protected]
    Format settings, CABAC                   : Yes
    Format settings, ReFrames                : 5 frames
    Muxing mode                              : Header stripping
    Codec ID                                 : V_MPEG4/ISO/AVC
    Duration                                 : 1h 19mn
    Bit rate                                 : 8 390 Kbps
    Width                                    : 1 920 pixels
    Height                                   : 824 pixels
    Display aspect ratio                     : 2.35:1
    Frame rate mode                          : Constant
    Frame rate                               : 25.000 fps
    Color space                              : YUV
    Chroma subsampling                       : 4:2:0
    Bit depth                                : 8 bits
    Scan type                                : Progressive
    Bits/(Pixel*Frame)                       : 0.212
    Stream size                              : 4.52 GiB (83%)
    Writing library                          : x264 core 125 r2200 999b753
    Encoding settings                        : cabac=1 / ref=5 / deblock=1:0:0 / analyse=0x3:0x113 / me=umh / subme=7 / psy=1 / psy_rd=1.00:0.00 / mixed_ref=1 / me_range=16 / chroma_me=1 / trellis=1 / 8x8dct=1 / cqm=0 / deadzone=21,11 / fast_pskip=0 / chroma_qp_offset=-2 / threads=12 / lookahead_threads=2 / sliced_threads=0 / nr=0 / decimate=1 / interlaced=0 / bluray_compat=0 / constrained_intra=0 / bframes=3 / b_pyramid=2 / b_adapt=1 / b_bias=0 / direct=1 / weightb=1 / open_gop=0 / weightp=2 / keyint=250 / keyint_min=25 / scenecut=40 / intra_refresh=0 / rc_lookahead=40 / rc=2pass / mbtree=1 / bitrate=8390 / ratetol=1.0 / qcomp=0.60 / qpmin=0 / qpmax=69 / qpstep=4 / cplxblur=20.0 / qblur=0.5 / ip_ratio=1.40 / aq=1:1.00
    Language                                 : English
    Default                                  : Yes
    Forced                                   : No

    Audio
    ID                                       : 2
    Format                                   : DTS
    Format/Info                              : Digital Theater Systems
    Mode                                     : 16
    Format settings, Endianness              : Big
    Muxing mode                              : Header stripping
    Codec ID                                 : A_DTS
    Duration                                 : 1h 19mn
    Bit rate mode                            : Constant
    Bit rate                                 : 1 509 Kbps
    Channel(s)                               : 6 channels
    Channel positions                        : Front: L C R, Side: L R, LFE
    Sampling rate                            : 48.0 KHz
    Frame rate                               : 93.750 fps (512 spf)
    Bit depth                                : 24 bits
    Compression mode                         : Lossy
    Stream size                              : 853 MiB (15%)
    Default                                  : Yes
    Forced                                   : No






与 GuajGuaj社区 的连接断开,我们正在尝试重连,请耐心等待