[更早][欧美][动作][WEB-720P]我是间谍/金牌间谍/吾系特务I.Spy.2002.720p.WEB-DL.DD5.1.H264-FGT3.04GB


  • administrators

    I.Spy.2002.720p.WEB-DL.DD5.1.H264-FGT

    ◎译  名 我是间谍/金牌间谍/吾系特务

    ◎片  名 I Spy

    ◎年  代 2002

    ◎国  家 美国

    ◎类  别 动作/冒险/喜剧/惊悚

    ◎语  言 英语/匈牙利语/俄语

    ◎上映日期 2002-11-01

    ◎IMDb评分  5.4/10 from 39,474 users

    ◎IMDb链接  http://www.imdb.com/title/tt0297181/

    ◎豆瓣评分 6.1/10 from 1,333 users

    ◎豆瓣链接 http://movie.douban.com/subject/1300162/

    ◎片  长 97 分钟

    ◎导  演 贝蒂·托马斯 Betty Thomas

    ◎主  演 艾迪·墨菲 Eddie Murphy

          欧文·威尔逊 Owen Wilson

          法米克·詹森 Famke Janssen

          马尔科姆·麦克道威尔 Malcolm McDowell


    ◎简  介


      当美国政府迄今为止最为复杂、机密的战斗机Switchblade原形机被偷走以后,美国的顶尖间谍亚历克斯-斯科特(Alex Scott,欧文-威尔逊饰,Owen Wilson)受命前去侦破这个案子。他所预想不到的是将与一位清高自大的世界拳击冠军凯利-鲁滨逊(Kelly Robinson,埃迪-墨菲饰,Eddie Murphy)一起去执行这项危险绝密的间谍行动。他们的任务是:以应因的技巧和诙谐,抓住世界上最为成功的非法军火商之一的阿诺德-冈达斯 (Arnold Gundars,马尔科姆-麦克道尔饰,Malcolm McDowell),挫败他针对这架飞机的阴谋。


    Video
    ID                                       : 1
    Format                                   : AVC
    Format/Info                              : Advanced Video Codec
    Format profile                           : [email protected]
    Format settings, CABAC                   : No
    Format settings, ReFrames                : 2 frames
    Codec ID                                 : V_MPEG4/ISO/AVC
    Duration                                 : 1h 36mn
    Bit rate                                 : 3 964 Kbps
    Width                                    : 1 276 pixels
    Height                                   : 720 pixels
    Display aspect ratio                     : 16:9
    Frame rate mode                          : Constant
    Frame rate                               : 23.976 fps
    Color space                              : YUV
    Chroma subsampling                       : 4:2:0
    Bit depth                                : 8 bits
    Scan type                                : Progressive
    Bits/(Pixel*Frame)                       : 0.180
    Stream size                              : 2.67 GiB (88%)
    Title                                    : I.Spy.2002.720p.WEB-DL.DD5.1.H264-FGT
    Language                                 : English
    Default                                  : Yes
    Forced                                   : No
    Color range                              : Limited
    Color primaries                          : BT.709
    Transfer characteristics                 : BT.709
    Matrix coefficients                      : BT.709

    Audio
    ID                                       : 2
    Format                                   : AC-3
    Format/Info                              : Audio Coding 3
    Mode extension                           : CM (complete main)
    Format settings, Endianness              : Big
    Codec ID                                 : A_AC3
    Duration                                 : 1h 36mn
    Bit rate mode                            : Constant
    Bit rate                                 : 448 Kbps
    Channel(s)                               : 6 channels
    Channel positions                        : Front: L C R, Side: L R, LFE
    Sampling rate                            : 48.0 KHz
    Compression mode                         : Lossy
    Stream size                              : 310 MiB (10%)
    Title                                    : I.Spy.2002.720p.WEB-DL.DD5.1.H264-FGT
    Language                                 : English
    Default                                  : Yes
    Forced                                   : No

    Text
    ID                                       : 3
    Format                                   : UTF-8
    Codec ID                                 : S_TEXT/UTF8
    Codec ID/Info                            : UTF-8 Plain Text
    Language                                 : English
    Default                                  : No
    Forced                                   : No

    Menu
    00:00:00.000                             : en:1
    00:07:46.000                             : en:2
    00:12:30.000                             : en:3
    00:19:06.000                             : en:4
    00:27:04.000                             : en:5
    00:33:37.000                             : en:6
    00:41:23.000                             : en:7
    00:48:05.000                             : en:8
    00:55:16.000                             : en:9
    01:00:39.000                             : en:10
    01:04:15.000                             : en:11
    01:12:02.000                             : en:12
    01:17:32.000                             : en:13
    01:20:52.000                             : en:14
    01:25:32.000                             : en:15
    01:27:26.000                             : en:16







与 GuajGuaj社区 的连接断开,我们正在尝试重连,请耐心等待