[更早][欧美][动作][WEB-1080P][BT下载]轰天俏娇娃/惊弓之鸟Bird.On.A.Wire.1990.1080p.WEBRip.DD2.0.x264-FGT11.5GB


  • administrators

    ◎译  名 轰天俏娇娃/惊弓之鸟/电线上的鸟

    ◎片  名 Bird on a Wire

    ◎年  代 1990

    ◎国  家 美国

    ◎类  别 喜剧/动作

    ◎语  言 英语

    ◎上映日期 1990-05-18

    ◎IMDb评分  5.9/10 from 31,844 users

    ◎IMDb链接  http://www.imdb.com/title/tt0099141/

    ◎豆瓣评分 6.7/10 from 271 users

    ◎豆瓣链接 https://movie.douban.com/subject/1295027/

    ◎BT之家整理 http://www.btbtt.co

    ◎片  长 110分钟

    ◎导  演 约翰·班德汉姆 John Badham

    ◎主  演 Mel Gibson

          Goldie Hawn

          David Carradine

          Bill Duke

          Stephen Tobolowsky


    ◎简  介


      Mel Gibson 在片中饰演一名曾在法庭指证毒贩的线民,为恐毒贩仇,在FBI为他重新安排新身份后,度过了十五年的隐居生活。但现在毒枭出狱,并展开了一系列追杀他的行动,而Goldie Hawn 则饰演他的旧情人,十五年来一直以为他去世了,不意又在加油站与他重逢...



    Video
    ID                                       : 1
    Format                                   : AVC
    Format/Info                              : Advanced Video Codec
    Format profile                           : [email protected]
    Format settings, CABAC                   : Yes
    Format settings, ReFrames                : 4 frames
    Codec ID                                 : V_MPEG4/ISO/AVC
    Duration                                 : 1h 50mn
    Bit rate mode                            : Variable
    Bit rate                                 : 14.4 Mbps
    Maximum bit rate                         : 15.0 Mbps
    Width                                    : 1 920 pixels
    Height                                   : 1 080 pixels
    Display aspect ratio                     : 16:9
    Frame rate mode                          : Constant
    Frame rate                               : 23.976 (24000/1001) fps
    Color space                              : YUV
    Chroma subsampling                       : 4:2:0
    Bit depth                                : 8 bits
    Scan type                                : Progressive
    Bits/(Pixel*Frame)                       : 0.290
    Stream size                              : 11.1 GiB (97%)
    Title                                    : Bird.On.A.Wire.1990.1080p.WEBRip.DD2.0.x264-FGT
    Writing library                          : x264 core 148 r2623 d5b2374
    Encoding settings                        : cabac=1 / ref=4 / deblock=1:-1:-1 / analyse=0x3:0x133 / me=umh / subme=9 / psy=1 / psy_rd=1.00:0.15 / mixed_ref=1 / me_range=24 / chroma_me=1 / trellis=2 / 8x8dct=1 / cqm=0 / deadzone=21,11 / fast_pskip=1 / chroma_qp_offset=-3 / threads=34 / lookahead_threads=5 / sliced_threads=0 / nr=150 / decimate=1 / interlaced=0 / bluray_compat=0 / constrained_intra=0 / bframes=8 / b_pyramid=2 / b_adapt=2 / b_bias=0 / direct=3 / weightb=1 / open_gop=0 / weightp=2 / keyint=120 / keyint_min=61 / scenecut=0 / intra_refresh=0 / rc_lookahead=120 / rc=crf / mbtree=1 / crf=18.0 / qcomp=0.60 / qpmin=0 / qpmax=69 / qpstep=4 / vbv_maxrate=15000 / vbv_bufsize=31250 / crf_max=0.0 / nal_hrd=vbr / filler=0 / ip_ratio=1.40 / aq=3:1.00
    Default                                  : Yes
    Forced                                   : No
    Color range                              : Limited
    Color primaries                          : BT.709
    Transfer characteristics                 : BT.709
    Matrix coefficients                      : BT.709

    Audio
    ID                                       : 2
    Format                                   : AC-3
    Format/Info                              : Audio Coding 3
    Mode extension                           : CM (complete main)
    Format settings, Endianness              : Big
    Codec ID                                 : A_AC3
    Duration                                 : 1h 50mn
    Bit rate mode                            : Constant
    Bit rate                                 : 192 Kbps
    Channel(s)                               : 2 channels
    Channel positions                        : Front: L R
    Sampling rate                            : 48.0 KHz
    Frame rate                               : 31.250 fps (1536 spf)
    Compression mode                         : Lossy
    Stream size                              : 152 MiB (1%)
    Title                                    : Bird.On.A.Wire.1990.1080p.WEBRip.DD2.0.x264-FGT
    Language                                 : English
    Default                                  : No
    Forced                                   : No

    Text
    ID                                       : 3
    Format                                   : UTF-8
    Codec ID                                 : S_TEXT/UTF8
    Codec ID/Info                            : UTF-8 Plain Text
    Language                                 : English
    Default                                  : No
    Forced                                   : No

    Menu
    00:00:00.000                             : en:00:00:00.000
    00:06:11.520                             : en:00:06:11.520
    00:11:44.400                             : en:00:11:44.400
    00:14:53.520                             : en:00:14:53.520
    00:21:17.600                             : en:00:21:17.600
    00:26:38.240                             : en:00:26:38.240
    00:33:59.360                             : en:00:33:59.360
    00:43:55.560                             : en:00:43:55.560
    00:49:21.960                             : en:00:49:21.960
    00:53:11.880                             : en:00:53:11.880
    00:55:41.560                             : en:00:55:41.560
    01:02:32.640                             : en:01:02:32.640
    01:08:28.320                             : en:01:08:28.320
    01:17:28.080                             : en:01:17:28.080
    01:22:50.440                             : en:01:22:50.440
    01:41:13.040                             : en:01:41:13.040
    01:45:58.800                             : en:01:45:58.800






与 GuajGuaj社区 的连接断开,我们正在尝试重连,请耐心等待