[2015][欧美][剧情][BD-1080P]莫莉梦妮与神奇的催眠书2015.1080p.BluRay.x264.DTS-FGT4.16GB


  • administrators

    Molly.Moon.and.the.Incredible.Book.of.Hypnotism.2015.1080p.BluRay.x264.DTS-FGT

    ◎译  名 莫莉梦妮与神奇的催眠书

    ◎片  名 Molly Moon and the Incredible Book of Hypnotism

    ◎年  代 2015

    ◎国  家 英国

    ◎类  别 家庭

    ◎语  言 英语

    ◎上映日期 2015-04-11(加拿大)/2015-05-30(美国,西雅图国际电影节)/2015-08-14(美国)/2015-09-03(新加坡)

    ◎IMDb评分  7.6/10 from 79 users

    ◎IMDb链接  http://www.imdb.com/title/tt2445178/

    ◎片  长 98分钟

    ◎导  演 Christopher N. Rowley

    ◎主  演 拉菲·卡西迪 Raffey Cassidy

          艾米丽·沃森 Emily Watson

          多米尼克·莫纳汉 Dominic Monaghan

          琼·柯琳斯 Joan Collins


    ◎简  介


      The story of a young orphan girl, Molly Moon, who comes across a book: ‘Hypnotism, An Ancient Art.’ Learning its lessons, she hypnotizes her way to stardom in London and becomes rich and famous. But little does she know that an unscrupulous man wants her book. He tracks her to London, kidnaps her dog, Petula, and blackmails Molly. In order to get her dog back, she must rob Shorings Bank of all its jewels! And then she must find the friends she has lost from her hypnotic journey.



    Video
    ID                                       : 1
    Format                                   : AVC
    Format/Info                              : Advanced Video Codec
    Format profile                           : [email protected]
    Format settings, CABAC                   : Yes
    Format settings, ReFrames                : 4 frames
    Codec ID                                 : V_MPEG4/ISO/AVC
    Duration                                 : 1h 37mn
    Bit rate                                 : 4 467 Kbps
    Width                                    : 1 920 pixels
    Height                                   : 1 040 pixels
    Display aspect ratio                     : 1.85:1
    Frame rate mode                          : Constant
    Frame rate                               : 24.000 fps
    Color space                              : YUV
    Chroma subsampling                       : 4:2:0
    Bit depth                                : 8 bits
    Scan type                                : Progressive
    Bits/(Pixel*Frame)                       : 0.093
    Stream size                              : 3.05 GiB (73%)
    Writing library                          : x264 core 148 r2597 e86f3a1
    Encoding settings                        : cabac=1 / ref=4 / deblock=1:0:0 / analyse=0x3:0x113 / me=umh / subme=7 / psy=1 / psy_rd=1.00:0.00 / mixed_ref=1 / me_range=16 / chroma_me=1 / trellis=1 / 8x8dct=1 / cqm=0 / deadzone=21,11 / fast_pskip=0 / chroma_qp_offset=-2 / threads=6 / lookahead_threads=1 / sliced_threads=0 / nr=0 / decimate=1 / interlaced=0 / bluray_compat=0 / constrained_intra=0 / bframes=3 / b_pyramid=2 / b_adapt=1 / b_bias=0 / direct=1 / weightb=1 / open_gop=0 / weightp=2 / keyint=250 / keyint_min=24 / scenecut=40 / intra_refresh=0 / rc_lookahead=40 / rc=crf / mbtree=1 / crf=20.0 / qcomp=0.60 / qpmin=0 / qpmax=69 / qpstep=4 / ip_ratio=1.40 / aq=1:1.00
    Language                                 : English
    Default                                  : Yes
    Forced                                   : No

    Audio
    ID                                       : 2
    Format                                   : DTS
    Format/Info                              : Digital Theater Systems
    Mode                                     : 16
    Format settings, Endianness              : Big
    Codec ID                                 : A_DTS
    Duration                                 : 1h 37mn
    Bit rate mode                            : Constant
    Bit rate                                 : 1 509 Kbps
    Channel(s)                               : 6 channels
    Channel positions                        : Front: L C R, Side: L R, LFE
    Sampling rate                            : 48.0 KHz
    Bit depth                                : 24 bits
    Compression mode                         : Lossy
    Stream size                              : 1.03 GiB (25%)
    Language                                 : English
    Default                                  : No
    Forced                                   : No






登录后回复
 

与 GuajGuaj社区 的连接断开,我们正在尝试重连,请耐心等待