[2012][欧美][喜剧][HDTV/HDrip]星际民谣斗士/未来民谣史The.Hisory.Of.Fuure.Folk.2012.720p.HDRip.x264.DD5.1-FGT1.93GB


  • administrators

    The.History.Of.Future.Folk.2012.720p.HDRip.x264.DD5.1-FGT

    ◎译  名 星际民谣斗士/未来民谣史

    ◎片  名 The History of Future Folk

    ◎年  代 2012

    ◎国  家 美国

    ◎类  别 喜剧/科幻/音乐

    ◎语  言 英语

    ◎上映日期 2012-06-15(洛杉矶电影节)

    ◎IMDb评分  7.4/10 from 1,841 users

    ◎IMDb链接  http://www.imdb.com/title/tt2245195/

    ◎豆瓣评分 8.2/10 from 28 users

    ◎豆瓣链接 http://movie.douban.com/subject/24522726/

    ◎片  长 86分钟

    ◎导  演 John Mitchell / Jeremy Kipp Walker

    ◎主  演 Nils d'Aulaire

          Jay Klaitz

          Julie Ann Emery

          埃普利·L·埃尔南德斯 April L. Hernandez

          Dee Snider


    ◎简  介


      史上唯一集科幻、动作、浪漫、喜剧、音乐为一体的电影,每一步情节发展都出人意料。

      来自航斗星球的两个外星人本想接管地球,却在发现“音乐”这一人类的神奇杰作之后将任务抛在脑后,转而在一间小酒吧里组建了宇宙第一个航斗星蓝草乐队 —— “星际民谣斗士”。星际危机一触即 发,他们如何抉择……


    ◎获奖情况


      第28届独立精神奖 (2013)

      FIND Your Audience Award John Mitchell / Jeremy Kipp Walker


    Video
    ID                                       : 1
    Format                                   : AVC
    Format/Info                              : Advanced Video Codec
    Format profile                           : [email protected]
    Format settings, CABAC                   : Yes
    Format settings, ReFrames                : 5 frames
    Codec ID                                 : V_MPEG4/ISO/AVC
    Duration                                 : 1h 25mn
    Bit rate                                 : 2 792 Kbps
    Nominal bit rate                         : 3 000 Kbps
    Width                                    : 1 280 pixels
    Height                                   : 720 pixels
    Display aspect ratio                     : 16:9
    Frame rate mode                          : Constant
    Frame rate                               : 23.976 fps
    Color space                              : YUV
    Chroma subsampling                       : 4:2:0
    Bit depth                                : 8 bits
    Scan type                                : Progressive
    Bits/(Pixel*Frame)                       : 0.126
    Stream size                              : 1.66 GiB (86%)
    Title                                    : The.History.Of.Future.Folk.2012.720p.HDRip.x264.DD5.1-FGT
    Writing library                          : x264 core 130 r2273 b3065e6
    Encoding settings                        : cabac=1 / ref=5 / deblock=1:0:0 / analyse=0x3:0x113 / me=umh / subme=8 / psy=1 / psy_rd=1.00:0.00 / mixed_ref=1 / me_range=16 / chroma_me=1 / trellis=1 / 8x8dct=1 / cqm=0 / deadzone=21,11 / fast_pskip=1 / chroma_qp_offset=-2 / threads=16 / lookahead_threads=2 / sliced_threads=0 / nr=0 / decimate=1 / interlaced=0 / bluray_compat=0 / constrained_intra=0 / bframes=3 / b_pyramid=2 / b_adapt=2 / b_bias=0 / direct=3 / weightb=1 / open_gop=0 / weightp=2 / keyint=240 / keyint_min=23 / scenecut=40 / intra_refresh=0 / rc_lookahead=50 / rc=abr / mbtree=1 / bitrate=3000 / ratetol=1.0 / qcomp=0.60 / qpmin=0 / qpmax=69 / qpstep=4 / ip_ratio=1.40 / aq=1:1.00
    Language                                 : English
    Default                                  : Yes
    Forced                                   : No

    Audio
    ID                                       : 2
    Format                                   : AC-3
    Format/Info                              : Audio Coding 3
    Mode extension                           : CM (complete main)
    Format settings, Endianness              : Big
    Codec ID                                 : A_AC3
    Duration                                 : 1h 25mn
    Bit rate mode                            : Constant
    Bit rate                                 : 384 Kbps
    Channel(s)                               : 6 channels
    Channel positions                        : Front: L C R, Side: L R, LFE
    Sampling rate                            : 48.0 KHz
    Bit depth                                : 16 bits
    Compression mode                         : Lossy
    Stream size                              : 234 MiB (12%)
    Title                                    : The.History.Of.Future.Folk.2012.720p.HDRip.x264.DD5.1-FGT
    Language                                 : English
    Default                                  : Yes
    Forced                                   : No

    Menu
    00:00:00.000                             : en:Chapter 1
    00:06:23.000                             : en:Chapter 2
    00:12:23.000                             : en:Chapter 3
    00:20:04.000                             : en:Chapter 4
    00:29:52.000                             : en:Chapter 5
    00:38:57.000                             : en:Chapter 6
    00:49:34.000                             : en:Chapter 7
    00:55:10.000                             : en:Chapter 8
    00:59:54.000                             : en:Chapter 9
    01:12:09.000                             : en:Chapter 10
    01:21:07.000                             : en:Chapter 11







与 GuajGuaj社区 的连接断开,我们正在尝试重连,请耐心等待