[2006][欧美][剧情][BD-1080P][BT下载]南极大冒险/零下八度Eigh.Below.2006.1080p.BluRay.x264.DTS-FGT11.36GB


  • administrators

    Eight.Below.2006.1080p.BluRay.x264.DTS-FGT

    ◎译  名 南极大冒险/零下八度/南极物语/极地长征

    ◎片  名 Eight Below

    ◎年  代 2006

    ◎国  家 美国

    ◎类  别 剧情/冒险

    ◎语  言 英语

    ◎上映日期 2006-02-17(美国)

    ◎IMDb评分  7.3/10 from 46,853 users

    ◎IMDb链接  http://www.imdb.com/title/tt0397313/

    ◎豆瓣评分 8.6/10 from 43,099 users

    ◎豆瓣链接 http://movie.douban.com/subject/1477448/

    ◎片  长 120 分钟

    ◎导  演 弗兰克·马歇尔 Frank Marshall

    ◎主  演 保罗·沃克 Paul Walker

          布鲁斯·格林伍德 Bruce Greenwood

          穆恩·布拉得古德 Moon Bloodgood

          温迪·古逊 Wendy Crewson

          贾森·比格斯 Jason Biggs


    ◎简  介


      动物与人之间互救互助,不舍不弃的感人故事,冰天雪地的南极迎来了三个科考队员,他们要前来搜寻一块陨石,随行的还有八条雪橇狗。南极风景优美,三人惊叹不已,然而危险却也随着美景到来。几天之后,一场暴风雪让他们尝到了苦头,其中一名队员掉进了薄冰下的冰水里面,危在旦夕,幸得雪橇狗奋身相救,队员才脱险——这似乎只是一个小小的序曲,更严峻的考验还在后头。

      狂暴的风雪在肆虐着南极大地,科考队员进退两难,在恶劣的天气和环境下挣扎求生。而此时,他们只能决定放弃那八条忠实的雪橇狗。当三人安全返回的时候,他们怎样也放不下那些还陷于危难的狗。为了挽救它们,三人沿途折回,回到了那片南极大地。



    Video
    ID                                       : 1
    Format                                   : AVC
    Format/Info                              : Advanced Video Codec
    Format profile                           : [email protected]
    Format settings, CABAC                   : Yes
    Format settings, ReFrames                : 4 frames
    Codec ID                                 : V_MPEG4/ISO/AVC
    Duration                                 : 2h 0mn
    Bit rate                                 : 12.0 Mbps
    Width                                    : 1 920 pixels
    Height                                   : 800 pixels
    Display aspect ratio                     : 2.40:1
    Frame rate mode                          : Constant
    Frame rate                               : 23.976 fps
    Color space                              : YUV
    Chroma subsampling                       : 4:2:0
    Bit depth                                : 8 bits
    Scan type                                : Progressive
    Bits/(Pixel*Frame)                       : 0.326
    Stream size                              : 9.87 GiB (87%)
    Writing library                          : x264 core 68 r1183M f21daff
    Encoding settings                        : cabac=1 / ref=4 / deblock=1:-3:-3 / analyse=0x3:0x133 / me=umh / subme=9 / psy_rd=1.0:0.0 / mixed_ref=1 / me_range=32 / chroma_me=1 / trellis=2 / 8x8dct=1 / cqm=0 / deadzone=21,11 / chroma_qp_offset=-2 / threads=16 / nr=0 / decimate=1 / mbaff=0 / bframes=6 / b_pyramid=1 / b_adapt=2 / b_bias=0 / direct=3 / wpredb=1 / keyint=250 / keyint_min=25 / scenecut=40 / rc=2pass / bitrate=12000 / ratetol=1.0 / qcomp=0.60 / qpmin=10 / qpmax=51 / qpstep=4 / cplxblur=20.0 / qblur=0.5 / vbv_maxrate=50000 / vbv_bufsize=50000 / ip_ratio=1.40 / pb_ratio=1.30 / aq=1:0.80
    Language                                 : English
    Default                                  : Yes
    Forced                                   : No

    Audio
    ID                                       : 2
    Format                                   : DTS
    Format/Info                              : Digital Theater Systems
    Mode                                     : 16
    Format settings, Endianness              : Big
    Codec ID                                 : A_DTS
    Duration                                 : 2h 0mn
    Bit rate mode                            : Constant
    Bit rate                                 : 1 510 Kbps
    Channel(s)                               : 6 channels
    Channel positions                        : Front: L C R, Side: L R, LFE
    Sampling rate                            : 48.0 KHz
    Frame rate                               : 93.750 fps (512 spf)
    Bit depth                                : 24 bits
    Compression mode                         : Lossy
    Stream size                              : 1.27 GiB (11%)
    Language                                 : English
    Default                                  : Yes
    Forced                                   : No






登录后回复
 

与 GuajGuaj社区 的连接断开,我们正在尝试重连,请耐心等待