[2015][香港][剧情][BD-1080P][BT下载]可爱的你/五个小孩的校长Lile.Big.Maser.2015.1080p.BluRay.x264-aBD7.6GB


  • administrators

    Little.Big.Master.2015.1080p.BluRay.x264-aBD

    ◎译  名 可爱的你/五个小孩的校长/5个小孩的校长

    ◎片  名 五個小孩的校長

    ◎年  代 2015

    ◎国  家 香港/中国大陆

    ◎类  别 剧情

    ◎语  言 汉语普通话/粤语

    ◎上映日期 2015-03-19(香港)/2015-03-20(中国大陆)/2015-04-02(台湾)

    ◎IMDb评分  7.4/10 from 351 users

    ◎IMDb链接  http://www.imdb.com/title/tt4319698/

    ◎豆瓣评分 7.8/10 from 18,538 users

    ◎豆瓣链接 http://movie.douban.com/subject/25870236/

    ◎片  长 113分钟

    ◎导  演 关信辉 Adrian Kwan

    ◎主  演 杨千嬅 Miriam Yeung

          古天乐 Louis Koo

          吴耀汉 Richard Ng

          吴浣仪 Yuen Yee Ng

          姜皓文 Philip Keung Ho-Man

          刘玉翠 Rain Lau

          狄哲龙 Dhillon Harjit Singh

          冯淬帆 Stanley Fung

          马浴柯 Marc Ma

          火火 Fire Lee Ka Wing

          黄文慧 Man-Wai Wong

          王诗雅

          何涴潆 Ho Yuen Ying Winnie

          傅舜盈

          陈丽儿

          李咏珊


    ◎简  介


      吕慧红(杨千嬅 饰)曾经是名校校长,和丈夫谢永东(古天乐 饰)结婚多年,感情依然恩爱如初,幸福美满的两人即将迎来他们的十周年结婚纪念日。吕慧红早早离开了工作岗位,为了半年之后的环球旅行做起了准备,内心里满怀着期待和盼望。

      一次偶然中,吕慧红得知一所名叫元田的幼儿园濒临倒闭的边缘,而园中仅有小雪(何涴潆 饰)、珠女(王诗雅 饰)、嘉嘉(傅舜盈 饰)、凯蒂(李咏珊 饰)和珍妮(陈丽儿 饰)五个天真单纯的孩子,如果幼儿园倒闭,那么这五个孩子将要面对无学可上的糟糕现实。冲动之下,吕慧红决定成为元田幼儿园的园长,哪知道想要胜任这一职位,需要付出那么多的努力和那么大的代价。


    ◎获奖情况


      第35届香港电影金像奖  (2016)

      最佳电影(提名)

      最佳导演(提名) 关信辉

      最佳编剧(提名) 张佩琼 / 关信辉

      最佳女主角(提名) 杨千嬅

      最佳女配角(提名) 吴浣仪


    Video
    ID                                       : 1
    Format                                   : AVC
    Format/Info                              : Advanced Video Codec
    Format profile                           : [email protected]
    Format settings, CABAC                   : Yes
    Format settings, ReFrames                : 5 frames
    Codec ID                                 : V_MPEG4/ISO/AVC
    Duration                                 : 1h 52mn
    Bit rate                                 : 8 961 Kbps
    Width                                    : 1 920 pixels
    Height                                   : 816 pixels
    Display aspect ratio                     : 2.35:1
    Frame rate mode                          : Constant
    Frame rate                               : 24.000 fps
    Color space                              : YUV
    Chroma subsampling                       : 4:2:0
    Bit depth                                : 8 bits
    Scan type                                : Progressive
    Bits/(Pixel*Frame)                       : 0.238
    Stream size                              : 6.88 GiB (90%)
    Writing library                          : x264 core 148 r2665 a01e339
    Encoding settings                        : cabac=1 / ref=5 / deblock=1:-1:-1 / analyse=0x3:0x113 / me=umh / subme=7 / psy=1 / psy_rd=1.00:0.00 / mixed_ref=1 / me_range=16 / chroma_me=1 / trellis=1 / 8x8dct=1 / cqm=0 / deadzone=21,11 / fast_pskip=1 / chroma_qp_offset=-2 / threads=12 / lookahead_threads=2 / sliced_threads=0 / nr=0 / decimate=1 / interlaced=0 / bluray_compat=0 / constrained_intra=0 / bframes=3 / b_pyramid=2 / b_adapt=2 / b_bias=0 / direct=3 / weightb=1 / open_gop=0 / weightp=2 / keyint=250 / keyint_min=24 / scenecut=40 / intra_refresh=0 / rc_lookahead=40 / rc=2pass / mbtree=1 / bitrate=8961 / ratetol=1.0 / qcomp=0.60 / qpmin=0 / qpmax=69 / qpstep=4 / cplxblur=20.0 / qblur=0.5 / vbv_maxrate=50000 / vbv_bufsize=50000 / nal_hrd=none / filler=0 / ip_ratio=1.40 / aq=1:1.00
    Language                                 : Chinese
    Default                                  : Yes
    Forced                                   : No

    Audio
    ID                                       : 2
    Format                                   : DTS
    Format/Info                              : Digital Theater Systems
    Mode                                     : 16
    Format settings, Endianness              : Big
    Codec ID                                 : A_DTS
    Duration                                 : 1h 52mn
    Bit rate mode                            : Constant
    Bit rate                                 : 768 Kbps
    Channel(s)                               : 6 channels
    Channel positions                        : Front: L C R, Side: L R, LFE
    Sampling rate                            : 48.0 KHz
    Frame rate                               : 93.750 fps (512 spf)
    Bit depth                                : 16 bits
    Compression mode                         : Lossy
    Stream size                              : 618 MiB (8%)
    Language                                 : Chinese
    Default                                  : Yes
    Forced                                   : No

    Text
    ID                                       : 3
    Format                                   : UTF-8
    Codec ID                                 : S_TEXT/UTF8
    Codec ID/Info                            : UTF-8 Plain Text
    Language                                 : English
    Default                                  : No
    Forced                                   : No






登录后回复
 

与 GuajGuaj社区 的连接断开,我们正在尝试重连,请耐心等待