[2014][欧美][动作][BD-1080P][BT下载]狂暴2Rampage.Capial.Punishmen.2014.1080p.BluRay.x264-GUACAMOLE6.5GB


  • administrators

    ◎译  名 狂暴2:资本的惩罚/狂暴2

    ◎片  名 Rampage: Capital Punishment

    ◎年  代 2014

    ◎国  家 加拿大/德国

    ◎类  别 动作/犯罪/惊悚

    ◎语  言 英语

    ◎IMDb评分  6.3/10 from 4,523 users

    ◎IMDb链接  http://www.imdb.com/title/tt3448226/

    ◎豆瓣评分 6.1/10 from 108 users

    ◎豆瓣链接 https://movie.douban.com/subject/25929966/

    ◎BT之家整理 http://www.btbtt.co

    ◎导  演 乌维·鲍尔 Uwe Boll

    ◎主  演 洛奇林·莫罗 Lochlyn Munro

          布莱登·佛雷切 Brendan Fletcher

          麦克·多普德 Mike Dopud


    ◎简  介


      Violent anti-hero Bill Williamson has a plan to change the world by exacting vengeance on the rich| and ripping Washington apart. He holds a number of people hostage
    and uses his captives as his political platform to spread his message and awaken humanity. It's time to destroy the system| and change won't happen peacefully.


    Video
    ID                                       : 1
    Format                                   : AVC
    Format/Info                              : Advanced Video Codec
    Format profile                           : [email protected]
    Format settings, CABAC                   : Yes
    Format settings, ReFrames                : 4 frames
    Codec ID                                 : V_MPEG4/ISO/AVC
    Duration                                 : 1h 32mn
    Bit rate                                 : 8 583 Kbps
    Width                                    : 1 920 pixels
    Height                                   : 1 080 pixels
    Display aspect ratio                     : 16:9
    Frame rate mode                          : Constant
    Frame rate                               : 23.976 (24000/1001) fps
    Original frame rate                      : 23.976 (23976/1000) fps
    Color space                              : YUV
    Chroma subsampling                       : 4:2:0
    Bit depth                                : 8 bits
    Scan type                                : Progressive
    Bits/(Pixel*Frame)                       : 0.173
    Stream size                              : 5.45 GiB (83%)
    Title                                    : Rampage: Capital Punishment (2014)
    Writing library                          : x264 core 142 r2479 dd79a61
    Encoding settings                        : cabac=1 / ref=4 / deblock=1:0:0 / analyse=0x3:0x113 / me=umh / subme=7 / psy=1 / psy_rd=1.00:0.00 / mixed_ref=1 / me_range=16 / chroma_me=1 / trellis=1 / 8x8dct=1 / cqm=0 / deadzone=21,11 / fast_pskip=0 / chroma_qp_offset=-2 / threads=12 / lookahead_threads=2 / sliced_threads=0 / nr=0 / decimate=1 / interlaced=0 / bluray_compat=0 / constrained_intra=0 / bframes=3 / b_pyramid=2 / b_adapt=2 / b_bias=0 / direct=3 / weightb=1 / open_gop=0 / weightp=2 / keyint=250 / keyint_min=23 / scenecut=40 / intra_refresh=0 / rc_lookahead=50 / rc=2pass / mbtree=1 / bitrate=8583 / ratetol=1.0 / qcomp=0.60 / qpmin=0 / qpmax=69 / qpstep=4 / cplxblur=20.0 / qblur=0.5 / ip_ratio=1.40 / aq=1:1.00
    Default                                  : Yes
    Forced                                   : No

    Audio
    ID                                       : 2
    Format                                   : DTS
    Format/Info                              : Digital Theater Systems
    Mode                                     : 16
    Format settings, Endianness              : Big
    Codec ID                                 : A_DTS
    Duration                                 : 1h 33mn
    Bit rate mode                            : Constant
    Bit rate                                 : 1 509 Kbps
    Channel(s)                               : 6 channels
    Channel positions                        : Front: L C R, Side: L R, LFE
    Sampling rate                            : 48.0 KHz
    Frame rate                               : 93.750 fps (512 spf)
    Bit depth                                : 24 bits
    Compression mode                         : Lossy
    Stream size                              : 1 004 MiB (15%)
    Title                                    : English
    Language                                 : English
    Default                                  : Yes
    Forced                                   : No






与 GuajGuaj社区 的连接断开,我们正在尝试重连,请耐心等待