[更早][欧美][恐怖][BD-1080P][BT下载]鬼门关3/独闯地狱门Beyond.he.Door.III.1989.1080p.BluRay.x264.DTS-FGT5.08GB


  • administrators

    Beyond.the.Door.III.1989.1080p.BluRay.x264.DTS-FGT

    ◎译  名 鬼门关3/鬼门关Ⅲ/独闯地狱门

    ◎片  名 Beyond the Door III

    ◎年  代 1989

    ◎国  家 意大利/南斯拉夫/美国

    ◎类  别 恐怖

    ◎语  言 英语

    ◎上映日期 1990-04-21

    ◎IMDb评分  4.6/10 from 393 users

    ◎IMDb链接  http://www.imdb.com/title/tt0096920/

    ◎豆瓣评分 5.3/10 from 490 users

    ◎豆瓣链接 https://movie.douban.com/subject/1304298/

    ◎BT之家整理 http://www.btbtt.co

    ◎片  长 USA: 94 分钟

    ◎导  演 Jeff Kwitny


    ◎简  介


       shy co-ed and her classmates travel to Europe to see a ritual. With a satanist/professor with them| he lures them into deadly traps to become sacrifices to Satan.
    One co-ed is a virgin| the main key to bring Satan back to life. But can the co-ed lose her virginity before Satan controls the world?


    Video
    ID                                       : 1
    Format                                   : AVC
    Format/Info                              : Advanced Video Codec
    Format profile                           : [email protected]
    Format settings, CABAC                   : Yes
    Format settings, ReFrames                : 5 frames
    Codec ID                                 : V_MPEG4/ISO/AVC
    Duration                                 : 1h 34mn
    Bit rate                                 : 6 024 Kbps
    Width                                    : 1 920 pixels
    Height                                   : 816 pixels
    Display aspect ratio                     : 2.35:1
    Frame rate mode                          : Constant
    Frame rate                               : 23.976 (24000/1001) fps
    Original frame rate                      : 23.976 (23976/1000) fps
    Color space                              : YUV
    Chroma subsampling                       : 4:2:0
    Bit depth                                : 8 bits
    Scan type                                : Progressive
    Bits/(Pixel*Frame)                       : 0.160
    Stream size                              : 3.98 GiB (78%)
    Writing library                          : x264 core 142 r2453 ea0ca51
    Encoding settings                        : cabac=1 / ref=5 / deblock=1:-3:-3 / analyse=0x3:0x113 / me=umh / subme=7 / psy=1 / psy_rd=1.00:0.00 / mixed_ref=1 / me_range=16 / chroma_me=1 / trellis=1 / 8x8dct=1 / cqm=0 / deadzone=21,11 / fast_pskip=0 / chroma_qp_offset=-2 / threads=10 / lookahead_threads=1 / sliced_threads=0 / nr=0 / decimate=1 / interlaced=0 / bluray_compat=0 / constrained_intra=0 / bframes=3 / b_pyramid=2 / b_adapt=1 / b_bias=0 / direct=3 / weightb=1 / open_gop=0 / weightp=2 / keyint=250 / keyint_min=23 / scenecut=40 / intra_refresh=0 / rc_lookahead=40 / rc=crf / mbtree=1 / crf=20.0 / qcomp=0.60 / qpmin=0 / qpmax=69 / qpstep=4 / ip_ratio=1.40 / aq=1:1.00
    Default                                  : Yes
    Forced                                   : No

    Audio
    ID                                       : 2
    Format                                   : DTS
    Format/Info                              : Digital Theater Systems
    Mode                                     : 16
    Format settings, Endianness              : Big
    Codec ID                                 : A_DTS
    Duration                                 : 1h 34mn
    Bit rate mode                            : Constant
    Bit rate                                 : 1 509 Kbps
    Channel(s)                               : 6 channels
    Channel positions                        : Front: L C R, Side: L R, LFE
    Sampling rate                            : 48.0 KHz
    Frame rate                               : 93.750 fps (512 spf)
    Bit depth                                : 24 bits
    Compression mode                         : Lossy
    Stream size                              : 1 021 MiB (20%)
    Language                                 : English
    Default                                  : Yes
    Forced                                   : No

    Menu
    00:00:00.000                             : en:00:00:00.000
    00:06:15.375                             : en:00:06:15.375
    00:12:34.837                             : en:00:12:34.837
    00:19:53.192                             : en:00:19:53.192
    00:26:13.781                             : en:00:26:13.781
    00:36:33.191                             : en:00:36:33.191
    00:45:37.026                             : en:00:45:37.026
    00:52:46.497                             : en:00:52:46.497
    00:57:03.337                             : en:00:57:03.337
    01:04:49.427                             : en:01:04:49.427
    01:15:44.081                             : en:01:15:44.081
    01:22:18.475                             : en:01:22:18.475
    01:31:46.251                             : en:01:31:46.251







登录后回复
 

与 GuajGuaj社区 的连接断开,我们正在尝试重连,请耐心等待