[更早][欧美][惊悚][BD-1080P][BT下载]恐惧市Fear.Ciy.1984.1080p.BluRay.x264-PFa6.55GB


  • administrators

    Fear.City.1984.1080p.BluRay.x264-PFa

    ◎译  名 恐惧市

    ◎片  名 Fear City

    ◎年  代 1984

    ◎国  家 美国

    ◎类  别 犯罪/剧情/悬疑/惊悚

    ◎语  言 英语

    ◎上映日期 1984

    ◎IMDb评分  5.6/10 from 2,024 users

    ◎IMDb链接  http://www.imdb.com/title/tt0087247/

    ◎豆瓣评分 5.2/10 from 17 users

    ◎豆瓣链接 https://movie.douban.com/subject/4151375/

    ◎BT之家整理 http://www.btbtt.co

    ◎片  长 96 分钟

    ◎导  演 Abel Ferrara


    ◎简  介


      In New York City| a psycho killer is stalking and randomly slashing and killing strippers working in various nightclubs. Matt Rossi is a former boxer trying to
    escape his past whom is currently employed at a talent agency which caters exotic dancers to the mafia-controlled strip clubs all over Manhattan. Matt and his
    business partner| Nicky| are relentlessly dogged by Al Wheeler| a persistent police detective on the case of the murdered strippers| and hoping to find something to
    nail both Matt and Nicky on. Matt is trying to reconcile with his former flame| Loretta| whom also works as a dancer and has a off-again| on-again drug problem. With
    the police constantly hounding them| and under pressure from his mob boss and other bosses to do something| Matt must somehow face his inner demons to find the
    killer before he strikes again.


    Video
    ID                                       : 1
    Format                                   : AVC
    Format/Info                              : Advanced Video Codec
    Format profile                           : [email protected]
    Format settings, CABAC                   : Yes
    Format settings, ReFrames                : 4 frames
    Codec ID                                 : V_MPEG4/ISO/AVC
    Duration                                 : 1h 36mn
    Bit rate                                 : 8 189 Kbps
    Width                                    : 1 920 pixels
    Height                                   : 1 080 pixels
    Display aspect ratio                     : 16:9
    Frame rate mode                          : Constant
    Frame rate                               : 23.976 (24000/1001) fps
    Color space                              : YUV
    Chroma subsampling                       : 4:2:0
    Bit depth                                : 8 bits
    Scan type                                : Progressive
    Bits/(Pixel*Frame)                       : 0.165
    Stream size                              : 5.40 GiB (82%)
    Writing library                          : x264 core 142 r2389 956c8d8
    Encoding settings                        : cabac=1 / ref=4 / deblock=1:0:0 / analyse=0x3:0x133 / me=umh / subme=8 / psy=1 / psy_rd=1.00:0.00 / mixed_ref=1 / me_range=16 / chroma_me=1 / trellis=1 / 8x8dct=1 / cqm=0 / deadzone=21,11 / fast_pskip=0 / chroma_qp_offset=-2 / threads=12 / lookahead_threads=2 / sliced_threads=0 / nr=0 / decimate=1 / interlaced=0 / bluray_compat=0 / constrained_intra=0 / bframes=3 / b_pyramid=2 / b_adapt=1 / b_bias=0 / direct=1 / weightb=1 / open_gop=0 / weightp=2 / keyint=250 / keyint_min=23 / scenecut=40 / intra_refresh=0 / rc_lookahead=40 / rc=2pass / mbtree=1 / bitrate=8189 / ratetol=1.0 / qcomp=0.60 / qpmin=0 / qpmax=69 / qpstep=4 / cplxblur=20.0 / qblur=0.5 / ip_ratio=1.40 / aq=1:1.00
    Language                                 : English
    Default                                  : Yes
    Forced                                   : No

    Audio
    ID                                       : 2
    Format                                   : DTS
    Format/Info                              : Digital Theater Systems
    Mode                                     : 16
    Format settings, Endianness              : Big
    Codec ID                                 : A_DTS
    Duration                                 : 1h 36mn
    Bit rate mode                            : Constant
    Bit rate                                 : 1 509 Kbps
    Channel(s)                               : 2 channels
    Channel positions                        : Front: L R
    Sampling rate                            : 48.0 KHz
    Frame rate                               : 93.750 fps (512 spf)
    Bit depth                                : 24 bits
    Compression mode                         : Lossy
    Stream size                              : 1.02 GiB (16%)
    Default                                  : Yes
    Forced                                   : No







与 GuajGuaj社区 的连接断开,我们正在尝试重连,请耐心等待