[更早][欧美][喜剧][WEB-1080P][BT下载]小鬼跷家/小魔法师The.Wizard.1989.1080p.WEBRip.DD2.0.x264-ViSUM9.2GB


  • administrators

    ◎译  名 小鬼跷家/小魔法师

    ◎片  名 The Wizard

    ◎年  代 1989

    ◎国  家 美国

    ◎类  别 喜剧/家庭/冒险/剧情

    ◎语  言 英语

    ◎上映日期 1989-12-15

    ◎IMDb评分  6.0/10 from 10,633 users

    ◎IMDb链接  http://www.imdb.com/title/tt0098663/

    ◎豆瓣评分 6.6/10 from 37 users

    ◎豆瓣链接 https://movie.douban.com/subject/1296065/

    ◎BT之家整理 http://www.btbtt.co

    ◎片  长 USA: 100 分钟

    ◎导  演 Todd Holland (I)

    ◎主  演 Luke Edwards

          Fred Savage


    ◎简  介


      男孩Corey决心帮助他的弟弟Jimmy完成前往加洲的心愿,在惊历奇险之后,终于如愿以偿,并且获得一份额外的礼物,参加任天堂电玩游戏的冠军赛。一部青春冒险奇想的电影,交织着温馨感人的气氛。


    Video
    ID                                       : 1
    Format                                   : AVC
    Format/Info                              : Advanced Video Codec
    Format profile                           : [email protected]
    Format settings, CABAC                   : Yes
    Format settings, ReFrames                : 4 frames
    Codec ID                                 : V_MPEG4/ISO/AVC
    Duration                                 : 1h 40mn
    Bit rate mode                            : Variable
    Bit rate                                 : 12.9 Mbps
    Maximum bit rate                         : 15.0 Mbps
    Width                                    : 1 920 pixels
    Height                                   : 1 080 pixels
    Display aspect ratio                     : 16:9
    Frame rate mode                          : Constant
    Frame rate                               : 23.976 (24000/1001) fps
    Color space                              : YUV
    Chroma subsampling                       : 4:2:0
    Bit depth                                : 8 bits
    Scan type                                : Progressive
    Bits/(Pixel*Frame)                       : 0.259
    Stream size                              : 9.05 GiB (98%)
    Writing library                          : x264 core 148 r2623 d5b2374
    Encoding settings                        : cabac=1 / ref=4 / deblock=1:-1:-1 / analyse=0x3:0x133 / me=umh / subme=9 / psy=1 / psy_rd=1.00:0.15 / mixed_ref=1 / me_range=24 / chroma_me=1 / trellis=2 / 8x8dct=1 / cqm=0 / deadzone=21,11 / fast_pskip=1 / chroma_qp_offset=-3 / threads=34 / lookahead_threads=5 / sliced_threads=0 / nr=150 / decimate=1 / interlaced=0 / bluray_compat=0 / constrained_intra=0 / bframes=8 / b_pyramid=2 / b_adapt=2 / b_bias=0 / direct=3 / weightb=1 / open_gop=0 / weightp=2 / keyint=120 / keyint_min=61 / scenecut=0 / intra_refresh=0 / rc_lookahead=120 / rc=crf / mbtree=1 / crf=18.0 / qcomp=0.60 / qpmin=0 / qpmax=69 / qpstep=4 / vbv_maxrate=15000 / vbv_bufsize=31250 / crf_max=0.0 / nal_hrd=vbr / filler=0 / ip_ratio=1.40 / aq=3:1.00
    Default                                  : Yes
    Forced                                   : No
    Color range                              : Limited
    Color primaries                          : BT.709
    Transfer characteristics                 : BT.709
    Matrix coefficients                      : BT.709

    Audio
    ID                                       : 2
    Format                                   : E-AC-3
    Format/Info                              : Audio Coding 3
    Format settings, Endianness              : Big
    Codec ID                                 : A_EAC3
    Duration                                 : 1h 40mn
    Bit rate mode                            : Constant
    Bit rate                                 : 224 Kbps
    Channel(s)                               : 2 channels
    Channel positions                        : Front: L R
    Sampling rate                            : 48.0 KHz
    Frame rate                               : 187.500 fps (256 spf)
    Compression mode                         : Lossy
    Stream size                              : 161 MiB (2%)
    Default                                  : Yes
    Forced                                   : No

    Text
    ID                                       : 3
    Format                                   : UTF-8
    Codec ID                                 : S_TEXT/UTF8
    Codec ID/Info                            : UTF-8 Plain Text
    Duration                                 : 1h 39mn
    Bit rate                                 : 57 bps
    Count of elements                        : 1235
    Stream size                              : 41.8 KiB (0%)
    Language                                 : English
    Default                                  : Yes
    Forced                                   : No







与 GuajGuaj社区 的连接断开,我们正在尝试重连,请耐心等待