[更早][日本][战争][WEB-1080P][BT下载]太平洋风暴/太平洋之岚1960.1080p.WEBRip.AAC2.0.x264-SR10.9GB


  • administrators

    ◎译  名 太平洋风暴/太平洋之岚

    ◎片  名 ワイ・ミッドウェイ大海空戦 太平洋の嵐

    ◎年  代 1960

    ◎国  家 日本

    ◎类  别 剧情/历史/战争

    ◎语  言 日语

    ◎上映日期 1960-04-26(日本)

    ◎IMDb评分  6.9/10 from 87 users

    ◎IMDb链接  http://www.imdb.com/title/tt0055502/

    ◎豆瓣评分 7.3/10 from 62 users

    ◎豆瓣链接 https://movie.douban.com/subject/1295554/

    ◎BT之家整理 http://www.btbtt.co 

    ◎片  长 118分钟

    ◎导  演 松林宗惠 Shûe Matsubayashi

    ◎主  演 夏木阳介 Yosuke Natsuki

          佐藤允 Makoto Satô

          上原美佐 Misa Uehara

          小林桂树 Keiju Kobayashi

          三船敏郎 Toshirô Mifune


    ◎简  介


      1941年,太平洋战争爆发,日本海军偷袭珍珠港成功,继而在战争初期,一度掌握了太平洋战场的主动权,为了打开美军的石油封锁线,日本进攻太平洋上的美军大型基地中途岛,此次由于情报失误,日本海军损失惨重,并从此在太平洋战场走下坡路,从而导致在这场战争中最终失败的命运。


    Video
    ID                                       : 1
    Format                                   : AVC
    Format/Info                              : Advanced Video Codec
    Format profile                           : [email protected]
    Format settings, CABAC                   : Yes
    Format settings, ReFrames                : 4 frames
    Codec ID                                 : V_MPEG4/ISO/AVC
    Duration                                 : 1h 57mn
    Bit rate mode                            : Variable
    Bit rate                                 : 13.1 Mbps
    Maximum bit rate                         : 15.0 Mbps
    Width                                    : 1 920 pixels
    Height                                   : 1 080 pixels
    Display aspect ratio                     : 16:9
    Frame rate mode                          : Constant
    Frame rate                               : 23.976 (24000/1001) fps
    Color space                              : YUV
    Chroma subsampling                       : 4:2:0
    Bit depth                                : 8 bits
    Scan type                                : Progressive
    Bits/(Pixel*Frame)                       : 0.264
    Stream size                              : 10.8 GiB (99%)
    Writing library                          : x264 core 148 r2623 d5b2374
    Encoding settings                        : cabac=1 / ref=4 / deblock=1:-1:-1 / analyse=0x3:0x133 / me=umh / subme=9 / psy=1 / psy_rd=1.00:0.15 / mixed_ref=1 / me_range=24 / chroma_me=1 / trellis=2 / 8x8dct=1 / cqm=0 / deadzone=21,11 / fast_pskip=1 / chroma_qp_offset=-3 / threads=34 / lookahead_threads=5 / sliced_threads=0 / nr=150 / decimate=1 / interlaced=0 / bluray_compat=0 / constrained_intra=0 / bframes=8 / b_pyramid=2 / b_adapt=2 / b_bias=0 / direct=3 / weightb=1 / open_gop=0 / weightp=2 / keyint=120 / keyint_min=61 / scenecut=0 / intra_refresh=0 / rc_lookahead=120 / rc=crf / mbtree=1 / crf=18.0 / qcomp=0.60 / qpmin=0 / qpmax=69 / qpstep=4 / vbv_maxrate=15000 / vbv_bufsize=31250 / crf_max=0.0 / nal_hrd=vbr / filler=0 / ip_ratio=1.40 / aq=3:1.00
    Default                                  : Yes
    Forced                                   : No
    Color range                              : Limited
    Color primaries                          : BT.709
    Transfer characteristics                 : BT.709
    Matrix coefficients                      : BT.709

    Audio
    ID                                       : 2
    Format                                   : AAC
    Format/Info                              : Advanced Audio Codec
    Format profile                           : LC
    Codec ID                                 : A_AAC
    Duration                                 : 1h 57mn
    Bit rate                                 : 125 Kbps
    Channel(s)                               : 2 channels
    Channel positions                        : Front: L R
    Sampling rate                            : 48.0 KHz
    Frame rate                               : 46.875 fps (1024 spf)
    Compression mode                         : Lossy
    Stream size                              : 106 MiB (1%)
    Language                                 : Japanese
    Default                                  : Yes
    Forced                                   : No







与 GuajGuaj社区 的连接断开,我们正在尝试重连,请耐心等待