[2015][欧美][惊悚][WEB-1080P][BT下载]哈文赫特Havenhurs.2016.1080p.WEB-DL.DD5.1.H264-FGT2.97GB


  • administrators

    ◎译  名 哈文赫特

    ◎片  名 Havenhurst

    ◎年  代 2015

    ◎国  家 美国

    ◎类  别 悬疑/惊悚/恐怖

    ◎语  言 英语

    ◎上映日期 2017-02-10(美国)

    ◎IMDb评分  5.0/10 from 549 users

    ◎IMDb链接  http://www.imdb.com/title/tt3424690/

    ◎BT之家整理 http://www.btbtt.co

    ◎片  长 80分钟

    ◎导  演 Andrew C. Erin

    ◎主  演 Julie Benz

          Fionnula Flanagan

          Belle Shouse


    ◎简  介


      A troubled young woman takes up residence in a gothic apartment building where she must confront a terrifying evil.


    Video
    ID                                       : 1
    Format                                   : AVC
    Format/Info                              : Advanced Video Codec
    Format profile                           : [email protected]
    Format settings, CABAC                   : Yes
    Format settings, ReFrames                : 5 frames
    Codec ID                                 : V_MPEG4/ISO/AVC
    Duration                                 : 1h 24mn
    Bit rate                                 : 4 533 Kbps
    Width                                    : 1 912 pixels
    Height                                   : 796 pixels
    Display aspect ratio                     : 2.40:1
    Frame rate mode                          : Constant
    Frame rate                               : 23.976 (24000/1001) fps
    Color space                              : YUV
    Chroma subsampling                       : 4:2:0
    Bit depth                                : 8 bits
    Scan type                                : Progressive
    Bits/(Pixel*Frame)                       : 0.124
    Stream size                              : 2.68 GiB (90%)
    Title                                    : Havenhurst.2016.1080p.WEB-DL.DD5.1.H264-FGT
    Language                                 : English
    Default                                  : Yes
    Forced                                   : No
    Color range                              : Limited
    Color primaries                          : BT.709
    Transfer characteristics                 : BT.709
    Matrix coefficients                      : BT.709

    Audio
    ID                                       : 2
    Format                                   : AC-3
    Format/Info                              : Audio Coding 3
    Mode extension                           : CM (complete main)
    Format settings, Endianness              : Big
    Codec ID                                 : A_AC3
    Duration                                 : 1h 24mn
    Bit rate mode                            : Constant
    Bit rate                                 : 384 Kbps
    Channel(s)                               : 6 channels
    Channel positions                        : Front: L C R, Side: L R, LFE
    Sampling rate                            : 48.0 KHz
    Frame rate                               : 31.250 fps (1536 spf)
    Compression mode                         : Lossy
    Stream size                              : 233 MiB (8%)
    Title                                    : Havenhurst.2016.1080p.WEB-DL.DD5.1.H264-FGT
    Language                                 : English
    Default                                  : Yes
    Forced                                   : No

    Text
    ID                                       : 3
    Format                                   : UTF-8
    Codec ID                                 : S_TEXT/UTF8
    Codec ID/Info                            : UTF-8 Plain Text
    Language                                 : English
    Default                                  : Yes
    Forced                                   : No

    Menu
    00:00:00.000                             : en:Chapter 1
    00:10:14.000                             : en:Chapter 2
    00:20:25.000                             : en:Chapter 3
    00:30:17.000                             : en:Chapter 4
    00:40:02.000                             : en:Chapter 5
    00:50:23.000                             : en:Chapter 6
    01:00:24.000                             : en:Chapter 7
    01:09:58.000                             : en:Chapter 8
    01:19:24.000                             : en:Chapter 9








与 GuajGuaj社区 的连接断开,我们正在尝试重连,请耐心等待