[2009][欧美][剧情][BD-1080P][BT下载]夏日的最后一天Las.Day.of.Summer.2009.1080p.BluRay.x264.DD5.1-FGT7.1GB


  • administrators

    Last.Day.of.Summer.2009.1080p.BluRay.x264.DD5.1-FGT

    ◎译  名 夏日的最后一天/恋恋夏日/夏日复仇计划

    ◎片  名 Last Day of Summer

    ◎年  代 2009

    ◎国  家 美国

    ◎类  别 喜剧/剧情

    ◎语  言 英语

    ◎上映日期 2009

    ◎IMDb评分  5.4/10 from 700 users

    ◎IMDb链接  http://www.imdb.com/title/tt1242544/

    ◎豆瓣评分 6.1/10 from 37 users

    ◎豆瓣链接 https://movie.douban.com/subject/4112823/

    ◎BT之家整理 http://www.btbtt.co

    ◎片  长 105 分钟

    ◎导  演 Vlad Yudin

    ◎主  演 DJ Qualls

          Nikki Reed

          William Sadler


    ◎简  介


      饱受快餐店老板折磨的小伙子终于按捺不住心头怒火,决定采取绑架行动进行报复,而一个女孩的出现打乱了他的复仇大计,最后竟改变了他的生活。



    Video
    ID                                       : 1
    Format                                   : AVC
    Format/Info                              : Advanced Video Codec
    Format profile                           : [email protected]
    Format settings, CABAC                   : Yes
    Format settings, ReFrames                : 4 frames
    Codec ID                                 : V_MPEG4/ISO/AVC
    Duration                                 : 1h 25mn
    Bit rate                                 : 11.5 Mbps
    Width                                    : 1 920 pixels
    Height                                   : 816 pixels
    Display aspect ratio                     : 2.35:1
    Frame rate mode                          : Constant
    Frame rate                               : 23.976 fps
    Color space                              : YUV
    Chroma subsampling                       : 4:2:0
    Bit depth                                : 8 bits
    Scan type                                : Progressive
    Bits/(Pixel*Frame)                       : 0.306
    Stream size                              : 6.71 GiB (94%)
    Writing library                          : x264 core 130 r2273 b3065e6
    Encoding settings                        : cabac=1 / ref=4 / deblock=1:-3:-3 / analyse=0x3:0x133 / me=umh / subme=11 / psy=1 / psy_rd=1.00:0.10 / mixed_ref=1 / me_range=32 / chroma_me=1 / trellis=2 / 8x8dct=1 / cqm=0 / deadzone=21,11 / fast_pskip=1 / chroma_qp_offset=-3 / threads=6 / lookahead_threads=1 / sliced_threads=0 / nr=0 / decimate=1 / interlaced=0 / bluray_compat=0 / constrained_intra=0 / bframes=5 / b_pyramid=2 / b_adapt=2 / b_bias=0 / direct=3 / weightb=1 / open_gop=0 / weightp=2 / keyint=250 / keyint_min=23 / scenecut=40 / intra_refresh=0 / rc_lookahead=60 / rc=2pass / mbtree=1 / bitrate=11500 / ratetol=1.0 / qcomp=0.60 / qpmin=0 / qpmax=69 / qpstep=4 / cplxblur=20.0 / qblur=0.5 / ip_ratio=1.40 / aq=1:1.00
    Language                                 : English
    Default                                  : Yes
    Forced                                   : No

    Audio
    ID                                       : 2
    Format                                   : AC-3
    Format/Info                              : Audio Coding 3
    Mode extension                           : CM (complete main)
    Format settings, Endianness              : Big
    Codec ID                                 : A_AC3
    Duration                                 : 1h 25mn
    Bit rate mode                            : Constant
    Bit rate                                 : 448 Kbps
    Channel(s)                               : 6 channels
    Channel positions                        : Front: L C R, Side: L R, LFE
    Sampling rate                            : 48.0 KHz
    Frame rate                               : 31.250 fps (1536 spf)
    Compression mode                         : Lossy
    Stream size                              : 273 MiB (4%)
    Language                                 : English
    Default                                  : Yes
    Forced                                   : No

    Text #1
    ID                                       : 3
    Format                                   : UTF-8
    Codec ID                                 : S_TEXT/UTF8
    Codec ID/Info                            : UTF-8 Plain Text
    Language                                 : English
    Default                                  : No
    Forced                                   : No

    Text #2
    ID                                       : 4
    Format                                   : UTF-8
    Codec ID                                 : S_TEXT/UTF8
    Codec ID/Info                            : UTF-8 Plain Text
    Language                                 : Portuguese
    Default                                  : No
    Forced                                   : No

    Menu
    00:00:00.000                             : en:Chapter 1
    00:06:59.961                             : en:Chapter 2
    00:15:59.959                             : en:Chapter 3
    00:23:59.938                             : en:Chapter 4
    00:31:59.959                             : en:Chapter 5
    00:39:59.980                             : en:Chapter 6
    00:47:59.918                             : en:Chapter 7
    00:55:59.898                             : en:Chapter 8
    01:03:59.919                             : en:Chapter 9
    01:09:59.945                             : en:Chapter 10
    01:14:59.912                             : en:Chapter 11
    01:19:59.920                             : en:Chapter 12







与 GuajGuaj社区 的连接断开,我们正在尝试重连,请耐心等待