[2010][欧美][恐怖][BD-1080P][BT下载]死者的亡灵/死者的亡灵The.Dead.Undead.2010.1080p.BluRay.x264.DTS-FGT8.8GB


  • administrators

    ◎译  名 死者的亡灵/死者的亡灵/活死人/死海不死/不死联盟

    ◎片  名 The Dead Undead

    ◎年  代 2010

    ◎国  家 美国

    ◎类  别 动作/恐怖/科幻

    ◎语  言 英语

    ◎上映日期 2010

    ◎IMDb评分  3.0/10 from 735 users

    ◎IMDb链接  http://www.imdb.com/title/tt0923653/

    ◎豆瓣评分 3.7/10 from 37 users

    ◎豆瓣链接 http://movie.douban.com/subject/5198731/

    ◎片  长 USA: 90 分钟

    ◎导  演 Matthew R. Anderson

    ◎主  演 Forrest J Ackerman ... Wheelchair ZomVamp

          Joshua Alba ... Curtis

          Matthew R. Anderson ... Viper

          Edward Conna ... Doc

          Hillary Enclade ... Zombie

          Lance Frank ... Lance

          Cameron Goodman ... Summer

          Luke Goss ... Jack

          Laura Kenley ... Megan

          Luke LaFontaine ... Aries

          Brandon Molale ... Team Leader

          Johnny Pacar ... Travis

          Billie Proffitt ... Billy

          Vernon Wells ... Raleigh

          Spice Williams-Crosby ... Gabrielle (as Spice Williams-Crosby)


    ◎简  介


      影片讲述了一群血族受到病毒感染而变成食人丧尸,而身为血族突击队的鲁克·高斯则要带领手下们拯救吸血鬼以及人类的命运。

      --------------------------

      由马修·R.安德森与爱德华·康纳共同执导的吸血鬼丧尸大作“The Dead Undead”的第二期拍摄工作已经收尾,影片预计将在今年上映。

      -此片由鲁克·高斯(代表作地狱男爵2)领衔主演,场面火爆且逼真刺激,很多高难度特技镜头都由他自己独立完成,其敬业精神令人敬佩。

      -影片讲述了一群血族受到病毒感染而变成食人丧尸,而身为血族突击队的鲁克·高斯则要带领手下们拯救吸血鬼以及人类的命运。

      A group of peaceful Vampires are infected and turned into crazed zombie like creatures whose only motivation is to feed on flesh, whether Human or Vampire. A group of Vamprie commandos tries to keep their identity secret, while trying to stop the spread of the infection. Soldiers from across the ages, it’s up to these vampires to end the zombie infection. Caught in the middle is a group of human kids on a camping trip, who team up with the Vampires in an attempt to survive.


    Video
    ID                                       : 1
    Format                                   : AVC
    Format/Info                              : Advanced Video Codec
    Format profile                           : [email protected]
    Format settings, CABAC                   : Yes
    Format settings, ReFrames                : 4 frames
    Codec ID                                 : V_MPEG4/ISO/AVC
    Duration                                 : 1h 32mn
    Bit rate                                 : 12.1 Mbps
    Width                                    : 1 920 pixels
    Height                                   : 1 080 pixels
    Display aspect ratio                     : 16:9
    Frame rate mode                          : Constant
    Frame rate                               : 23.976 (24000/1001) fps
    Color space                              : YUV
    Chroma subsampling                       : 4:2:0
    Bit depth                                : 8 bits
    Scan type                                : Progressive
    Bits/(Pixel*Frame)                       : 0.244
    Stream size                              : 7.70 GiB (87%)
    Writing library                          : x264 core 130 r2273 b3065e6
    Encoding settings                        : cabac=1 / ref=4 / deblock=1:-1:-1 / analyse=0x3:0x113 / me=umh / subme=7 / psy=1 / psy_rd=1.00:0.15 / mixed_ref=1 / me_range=16 / chroma_me=1 / trellis=1 / 8x8dct=1 / cqm=0 / deadzone=21,11 / fast_pskip=0 / chroma_qp_offset=-3 / threads=18 / lookahead_threads=3 / sliced_threads=0 / nr=0 / decimate=1 / interlaced=0 / bluray_compat=0 / constrained_intra=0 / bframes=3 / b_pyramid=2 / b_adapt=1 / b_bias=0 / direct=1 / weightb=1 / open_gop=0 / weightp=2 / keyint=250 / keyint_min=23 / scenecut=40 / intra_refresh=0 / rc_lookahead=40 / rc=2pass / mbtree=1 / bitrate=12138 / ratetol=1.0 / qcomp=0.60 / qpmin=0 / qpmax=69 / qpstep=4 / cplxblur=20.0 / qblur=0.5 / ip_ratio=1.40 / aq=1:1.00
    Default                                  : Yes
    Forced                                   : No

    Audio
    ID                                       : 2
    Format                                   : DTS
    Format/Info                              : Digital Theater Systems
    Mode                                     : 16
    Format settings, Endianness              : Big
    Codec ID                                 : A_DTS
    Duration                                 : 1h 32mn
    Bit rate mode                            : Constant
    Bit rate                                 : 1 509 Kbps
    Channel(s)                               : 6 channels
    Channel positions                        : Front: L C R, Side: L R, LFE
    Sampling rate                            : 48.0 KHz
    Frame rate                               : 93.750 fps (512 spf)
    Bit depth                                : 24 bits
    Compression mode                         : Lossy
    Stream size                              : 1 003 MiB (11%)
    Title                                    : DTS
    Language                                 : English
    Default                                  : No
    Forced                                   : No







与 GuajGuaj社区 的连接断开,我们正在尝试重连,请耐心等待