[更早][欧美][战争][WEB-1080P][BT下载]蛙人海底战/雨楼英雄The.Frogmen.1951.1080p.WEBRip.AAC.2.0.x264-SR8.6GB


  • administrators

    ◎译  名 蛙人海底战/雨楼英雄

    ◎片  名 The Frogmen

    ◎年  代 1951

    ◎国  家 美国

    ◎类  别 冒险/战争/剧情

    ◎语  言 英语

    ◎上映日期 1951-06-29

    ◎IMDb评分  6.7/10 from 793 users

    ◎IMDb链接  http://www.imdb.com/title/tt0043565/

    ◎豆瓣评分 6.8/10 from 25 users

    ◎豆瓣链接 https://movie.douban.com/subject/1295508/

    ◎BT之家整理 http://www.btbtt.co 

    ◎片  长 96 分钟

    ◎导  演 劳埃德·培根 Lloyd Bacon

    ◎主  演 达纳·安德鲁斯 Dana Andrews

          杰弗里·亨特 Jeffrey Hunter

          罗伯特·瓦格纳 Robert Wagner


    ◎简  介


      这是一部惊险的二战题材的影片,一名海军少尉被派到海军蛙人部队任职。他严格的态度赢得了士兵们的友谊,部下跟着他出生入死,即将执行一项危险的任务——攻击日军潜艇基地……


    ◎获奖情况


      第24届奥斯卡金像奖  (1952)

      最佳电影故事(提名) 奥斯卡·米勒德

      黑白片最佳摄影(提名) Norbert Brodine




    Video
    ID                                       : 1
    Format                                   : AVC
    Format/Info                              : Advanced Video Codec
    Format profile                           : [email protected]
    Format settings, CABAC                   : Yes
    Format settings, ReFrames                : 4 frames
    Codec ID                                 : V_MPEG4/ISO/AVC
    Duration                                 : 1h 36mn
    Bit rate mode                            : Variable
    Bit rate                                 : 12.6 Mbps
    Maximum bit rate                         : 15.0 Mbps
    Width                                    : 1 440 pixels
    Height                                   : 1 080 pixels
    Display aspect ratio                     : 4:3
    Frame rate mode                          : Constant
    Frame rate                               : 23.976 (24000/1001) fps
    Color space                              : YUV
    Chroma subsampling                       : 4:2:0
    Bit depth                                : 8 bits
    Scan type                                : Progressive
    Bits/(Pixel*Frame)                       : 0.339
    Stream size                              : 8.51 GiB (99%)
    Writing library                          : x264 core 148 r2623 d5b2374
    Encoding settings                        : cabac=1 / ref=4 / deblock=1:-1:-1 / analyse=0x3:0x133 / me=umh / subme=9 / psy=1 / psy_rd=1.00:0.15 / mixed_ref=1 / me_range=24 / chroma_me=1 / trellis=2 / 8x8dct=1 / cqm=0 / deadzone=21,11 / fast_pskip=1 / chroma_qp_offset=-3 / threads=34 / lookahead_threads=5 / sliced_threads=0 / nr=150 / decimate=1 / interlaced=0 / bluray_compat=0 / constrained_intra=0 / bframes=8 / b_pyramid=2 / b_adapt=2 / b_bias=0 / direct=3 / weightb=1 / open_gop=0 / weightp=2 / keyint=120 / keyint_min=61 / scenecut=0 / intra_refresh=0 / rc_lookahead=120 / rc=crf / mbtree=1 / crf=18.0 / qcomp=0.60 / qpmin=0 / qpmax=69 / qpstep=4 / vbv_maxrate=15000 / vbv_bufsize=31250 / crf_max=0.0 / nal_hrd=vbr / filler=0 / ip_ratio=1.40 / aq=3:1.00
    Default                                  : Yes
    Forced                                   : No
    Color range                              : Limited
    Color primaries                          : BT.709
    Transfer characteristics                 : BT.709
    Matrix coefficients                      : BT.709

    Audio
    ID                                       : 2
    Format                                   : AAC
    Format/Info                              : Advanced Audio Codec
    Format profile                           : LC
    Codec ID                                 : A_AAC
    Duration                                 : 1h 36mn
    Bit rate                                 : 125 Kbps
    Channel(s)                               : 2 channels
    Channel positions                        : Front: L R
    Sampling rate                            : 48.0 KHz
    Frame rate                               : 46.875 fps (1024 spf)
    Compression mode                         : Lossy
    Stream size                              : 86.5 MiB (1%)
    Language                                 : English
    Default                                  : Yes
    Forced                                   : No

    Text
    ID                                       : 3
    Format                                   : UTF-8
    Codec ID                                 : S_TEXT/UTF8
    Codec ID/Info                            : UTF-8 Plain Text
    Duration                                 : 1h 34mn
    Bit rate                                 : 59 bps
    Count of elements                        : 982
    Stream size                              : 41.4 KiB (0%)
    Language                                 : English
    Default                                  : No
    Forced                                   : No






登录后回复
 

与 GuajGuaj社区 的连接断开,我们正在尝试重连,请耐心等待