[更早][欧美][喜剧][WEB-1080P]哈拉猛男秀2:欧洲种马Deuce.Bigalow.European.Gigolo.2005.1080p.WEB-DL.DD5.1.H264-FGT3.23G


  • administrators

    Deuce.Bigalow.European.Gigolo.2005.1080p.WEB-DL.DD5.1.H264-FGT

    ◎译  名 哈拉猛男秀2:欧洲种马/憨直舞男2

    ◎片  名 Deuce Bigalow: European Gigolo

    ◎年  代 2005

    ◎国  家 美国

    ◎类  别 喜剧

    ◎语  言 英语

    ◎上映日期 2005-08-12

    ◎IMDb评分  4.6/10 from 39,208 users

    ◎IMDb链接  http://www.imdb.com/title/tt0367652/

    ◎豆瓣评分 6.3/10 from 1,535 users

    ◎豆瓣链接 http://movie.douban.com/subject/1309062/

    ◎片  长 83 分钟

    ◎导  演 Mike Bigelow

    ◎主  演 罗伯·施奈德 Rob Schneider

          艾迪·格里芬 Eddie Griffin

          Edwin Alofs

          蒂尔·施威格 Til Schweiger

          余炳贤 Tony Fish


    ◎简  介


      原本打算脱离男妓行业潜心研究鱼类米特·德斯·比格劳(罗伯·施奈德 Rob Schneider 饰),生活并非一帆风顺。这六年来,他的妻子凯特遭到鲨鱼袭击身亡,而他正在研究的机器也在海边引起一场混乱,最终成为通缉犯。万般无奈之下,米特应皮条客T·J·希克斯(Eddie Griffin 饰)之邀来到性都阿姆斯特丹。希克斯在这里将男妓事业越做越大,拥有自己的豪华游艇。与此同时,阿姆斯特丹内开始出现男妓杀手,接连有名声显赫的舞男遇害,而希克斯更阴差阳错成为嫌疑人。

      为了找到真正的凶手,并洗刷好友的罪名,米特不得已再次进入男妓行业,开始一段惊险刺激的旅程……


    ◎获奖情况


      第15届MTV电影奖 (2006)

      MTV电影奖 最性感表演(提名) 罗伯·施奈德




    Video
    ID                                       : 1
    Format                                   : AVC
    Format/Info                              : Advanced Video Codec
    Format profile                           : [email protected]
    Format settings, CABAC                   : Yes
    Format settings, ReFrames                : 4 frames
    Codec ID                                 : V_MPEG4/ISO/AVC
    Duration                                 : 1h 23mn
    Bit rate                                 : 5 068 Kbps
    Width                                    : 1 898 pixels
    Height                                   : 1 074 pixels
    Display aspect ratio                     : 16:9
    Frame rate mode                          : Constant
    Frame rate                               : 23.976 fps
    Color space                              : YUV
    Chroma subsampling                       : 4:2:0
    Bit depth                                : 8 bits
    Scan type                                : Progressive
    Bits/(Pixel*Frame)                       : 0.104
    Stream size                              : 2.94 GiB (91%)
    Title                                    : Deuce.Bigalow.European.Gigolo.2005.1080p.WEB-DL.DD5.1.H264-FGT
    Language                                 : English
    Default                                  : Yes
    Forced                                   : No
    Color range                              : Limited
    Color primaries                          : BT.709
    Transfer characteristics                 : BT.709
    Matrix coefficients                      : BT.709

    Audio
    ID                                       : 2
    Format                                   : AC-3
    Format/Info                              : Audio Coding 3
    Mode extension                           : CM (complete main)
    Format settings, Endianness              : Big
    Codec ID                                 : A_AC3
    Duration                                 : 1h 23mn
    Bit rate mode                            : Constant
    Bit rate                                 : 384 Kbps
    Channel(s)                               : 6 channels
    Channel positions                        : Front: L C R, Side: L R, LFE
    Sampling rate                            : 48.0 KHz
    Compression mode                         : Lossy
    Stream size                              : 228 MiB (7%)
    Title                                    : Deuce.Bigalow.European.Gigolo.2005.1080p.WEB-DL.DD5.1.H264-FGT
    Language                                 : English
    Default                                  : Yes
    Forced                                   : No

    Menu
    00:00:00.000                             : en:Start
    00:02:29.000                             : en:Little Bastards
    00:05:21.000                             : en:Amsterdam
    00:07:29.000                             : en:Red Light Girls
    00:12:50.000                             : en:Coffee Shop
    00:14:52.000                             : enead Prostidude
    00:18:46.000                             : en:Interrogation Room
    00:22:01.000                             : en:First Man-Whore to Bite
    00:24:00.000                             : en:Man-Whore Union
    00:28:16.000                             : en:Man-Whore Wisdom
    00:29:55.000                             : en:Baby Talk
    00:32:52.000                             : en:\"Pot\" Zone
    00:35:20.000                             : en:Afternoon with Eva
    00:38:30.000                             : en:The Competition
    00:40:08.000                             : en:Fun with a Blowhole
    00:45:41.000                             : eninner with Dick Nose
    00:48:19.000                             : en:Making a Porn
    00:52:18.000                             : en:Ladies Man
    00:54:40.000                             : en:A Tanner T.J.
    00:55:08.000                             : en:T.J.\'s Graceland
    00:59:07.000                             : en:Eva Under Suspicion
    01:02:13.000                             : eneuce Visits Gaspar
    01:05:11.000                             : en:\"The Golden Boner\"
    01:07:21.000                             : en:Hard Criminals
    01:10:00.000                             : en:Man-Whore of the Year
    01:12:00.000                             : en:Gigolo Swordfight
    01:14:47.000                             : en:First Kiss
    01:15:56.000                             : en:T.J.\'s New Business






登录后回复
 

与 GuajGuaj社区 的连接断开,我们正在尝试重连,请耐心等待