[2008][欧美][爱情][BD-1080P][BT下载]爱我敢不敢/敢不敢/胆量游戏/激将Dare.2008.LIMITED.1080p.BluRay.x264-THUGLiNE7.94GB


  • administrators

    ◎译  名 爱我敢不敢/敢不敢/胆量游戏/激将

    ◎片  名 Dare

    ◎年  代 2009

    ◎国  家 美国

    ◎类  别 剧情/爱情/同性

    ◎语  言 英语

    ◎上映日期 2009-01-19

    ◎IMDb评分  5.9/10 from 3,630 users

    ◎IMDb链接  http://www.imdb.com/title/tt1241316/

    ◎豆瓣评分 6.2/10 from 785 users

    ◎豆瓣链接 https://movie.douban.com/subject/3239988/

    ◎BT之家整理 http://www.btbtt.co  

    ◎导  演 Adam Salky

    ◎主  演 埃米·罗森 Emmy Rossum

          扎克·吉尔福德 Zach Gilford

          Ashley Springer

          鲁妮·玛拉 Rooney Mara

          安娜·盖斯泰尔 Ana Gasteyer


    ◎简  介


      高中生艾丽克莎•沃克(埃米•罗森 Emmy Rossum 饰)因为经期不调来医院做妇科检查,可大夫说她的问题在于性生活不规律。其实,她还是处女,并无经验。她有一个很体贴的朋友本•伯格(阿什利•斯普林格 Ashley Springer 饰)。她渴望成为一名演员,并在舞台剧《欲望号街车》中扮演了布兰奇这个角色。但是,跟她搭戏的男孩强尼•德拉克(扎克•吉尔福德 Zach Gilford)似乎对演戏并不上心,这让她感到非常郁闷。她找到他,希望他可以认真地演戏,没想到却被对方羞辱。老师请来了前辈指点,后者觉得强尼很有潜质,但却劝艾丽克莎改行,这令她大为不解。原来,前辈认为她是乖乖女,不适合演员这个职业。为了证明自己,她在派对时嗑药,并勾引了强尼。而本此时也向强尼示好,三人陷入了暧昧关系之中……


    Video
    ID                                       : 1
    Format                                   : AVC
    Format/Info                              : Advanced Video Codec
    Format profile                           : [email protected]
    Format settings, CABAC                   : Yes
    Format settings, ReFrames                : 4 frames
    Codec ID                                 : V_MPEG4/ISO/AVC
    Duration                                 : 1h 30mn
    Bit rate                                 : 11.1 Mbps
    Width                                    : 1 920 pixels
    Height                                   : 1 040 pixels
    Display aspect ratio                     : 1.85:1
    Frame rate mode                          : Constant
    Frame rate                               : 23.976 fps
    Color space                              : YUV
    Chroma subsampling                       : 4:2:0
    Bit depth                                : 8 bits
    Scan type                                : Progressive
    Bits/(Pixel*Frame)                       : 0.231
    Stream size                              : 6.83 GiB (86%)
    Writing library                          : x264 core 84 r1416 fcf70c2
    Encoding settings                        : cabac=1 / ref=4 / deblock=1:0:0 / analyse=0x3:0x133 / me=umh / subme=7 / psy=1 / psy_rd=1.0:0.0 / mixed_ref=1 / me_range=16 / chroma_me=1 / trellis=1 / 8x8dct=1 / cqm=0 / deadzone=21,11 / fast_pskip=0 / chroma_qp_offset=-2 / threads=12 / sliced_threads=0 / nr=0 / decimate=1 / mbaff=0 / constrained_intra=0 / bframes=3 / b_pyramid=0 / b_adapt=1 / b_bias=0 / direct=1 / wpredb=1 / wpredp=2 / keyint=250 / keyint_min=25 / scenecut=40 / intra_refresh=0 / rc_lookahead=40 / rc=2pass / mbtree=1 / bitrate=11057 / ratetol=1.0 / qcomp=0.60 / qpmin=10 / qpmax=51 / qpstep=4 / cplxblur=20.0 / qblur=0.5 / ip_ratio=1.40 / aq=1:1.00
    Language                                 : English
    Default                                  : Yes
    Forced                                   : No

    Audio
    ID                                       : 2
    Format                                   : DTS
    Format/Info                              : Digital Theater Systems
    Mode                                     : 16
    Format settings, Endianness              : Big
    Codec ID                                 : A_DTS
    Duration                                 : 1h 30mn
    Bit rate mode                            : Constant
    Bit rate                                 : 1 509 Kbps
    Channel(s)                               : 6 channels
    Channel positions                        : Front: L C R, Side: L R, LFE
    Sampling rate                            : 48.0 KHz
    Frame rate                               : 93.750 fps (512 spf)
    Bit depth                                : 24 bits
    Compression mode                         : Lossy
    Stream size                              : 977 MiB (12%)
    Language                                 : English
    Default                                  : Yes
    Forced                                   : No







与 GuajGuaj社区 的连接断开,我们正在尝试重连,请耐心等待