[2016][欧美][科幻][WEB-1080P][BT下载]星际迷航3:超越星辰Sar.Trek.Beyond.2016.1080p.WEB-DL.DD5.1.H264-FGT4.2GB


  • administrators

    ◎译  名 星际迷航3:超越星辰/星际迷航13:超越/星际旅行13:超越太空/星空奇遇记13:超域时空(港)/星际争霸战13:浩瀚无垠(台)/星舰奇航记13/星舰迷航记13

    ◎片  名 Star Trek Beyond

    ◎年  代 2016

    ◎国  家 美国

    ◎类  别 动作/科幻/冒险

    ◎语  言 英语

    ◎上映日期 2016-07-22(美国)/2016-09-02(中国大陆)

    ◎IMDb评分  7.4/10 from 74,918 users

    ◎IMDb链接  http://www.imdb.com/title/tt2660888/

    ◎豆瓣评分 7.5/10 from 57,361 users

    ◎豆瓣链接 https://movie.douban.com/subject/22939161/

    ◎BT之家整理 http://www.btbtt.co 

    ◎片  长 122分钟(中国大陆/美国)

    ◎导  演 林诣彬 Justin Lin

    ◎主  演 克里斯·派恩 Chris Pine

          扎克瑞·昆图 Zachary Quinto

          佐伊·索尔达娜 Zoe Saldana

          西蒙·佩吉 Simon Pegg

          安东·叶利钦 Anton Yelchin

          伊德里斯·艾尔巴 Idris Elba

          索菲亚·波多拉 Sofia Boutella

          卡尔·厄本 Karl Urban

          索瑞·安达斯鲁 Shohreh Aghdashloo

          约翰·赵 John Cho

          迪普·罗伊 Deep Roy

          莉迪亚·威尔逊 Lydia Wilson

          乔·塔斯利姆 Joe Taslim

          约瑟夫·盖特 Joseph Gatt

          卡洛·安切洛蒂 Carlo Ancelotti

          亚当·迪马克 Adam DiMarco

          梅丽莎·罗斯伯格 Melissa Roxburgh

          阿什丽·艾德纳 Ashley Edner

          贾森·马修·史密斯 Jason Matthew Smith


    ◎简  介


      柯克船长(克里斯·派恩 Chris Pine 饰)和企业号的船员们来到了银河系中未知的一个区域,开始完成他们5年的任务——探索新世界,寻找新物种。却在途中滞留异星,遭遇了当地种族追杀,他们必须找到方法离开这个星球。



    Video
    ID                                       : 1
    Format                                   : AVC
    Format/Info                              : Advanced Video Codec
    Format profile                           : [email protected]
    Format settings, CABAC                   : Yes
    Format settings, ReFrames                : 5 frames
    Codec ID                                 : V_MPEG4/ISO/AVC
    Duration                                 : 2h 2mn
    Bit rate                                 : 4 459 Kbps
    Width                                    : 1 912 pixels
    Height                                   : 800 pixels
    Display aspect ratio                     : 2.40:1
    Frame rate mode                          : Constant
    Frame rate                               : 23.976 fps
    Color space                              : YUV
    Chroma subsampling                       : 4:2:0
    Bit depth                                : 8 bits
    Scan type                                : Progressive
    Bits/(Pixel*Frame)                       : 0.122
    Stream size                              : 3.81 GiB (90%)
    Title                                    : Star.Trek.Beyond.2016.1080p.WEB-DL.DD5.1.H264-FGT
    Language                                 : English
    Default                                  : Yes
    Forced                                   : No
    Color range                              : Limited
    Color primaries                          : BT.709
    Transfer characteristics                 : BT.709
    Matrix coefficients                      : BT.709

    Audio
    ID                                       : 2
    Format                                   : AC-3
    Format/Info                              : Audio Coding 3
    Mode extension                           : CM (complete main)
    Format settings, Endianness              : Big
    Codec ID                                 : A_AC3
    Duration                                 : 2h 2mn
    Bit rate mode                            : Constant
    Bit rate                                 : 384 Kbps
    Channel(s)                               : 6 channels
    Channel positions                        : Front: L C R, Side: L R, LFE
    Sampling rate                            : 48.0 KHz
    Frame rate                               : 31.250 fps (1536 spf)
    Compression mode                         : Lossy
    Stream size                              : 336 MiB (8%)
    Title                                    : Star.Trek.Beyond.2016.1080p.WEB-DL.DD5.1.H264-FGT
    Language                                 : English
    Default                                  : Yes
    Forced                                   : No

    Text
    ID                                       : 3
    Format                                   : UTF-8
    Codec ID                                 : S_TEXT/UTF8
    Codec ID/Info                            : UTF-8 Plain Text
    Title                                    : FORCED
    Language                                 : English
    Default                                  : Yes
    Forced                                   : Yes

    Menu
    00:00:00.000                             : en:Chapter 1
    00:08:25.000                             : en:Chapter 2
    00:16:10.000                             : en:Chapter 3
    00:32:37.000                             : en:Chapter 4
    00:42:15.000                             : en:Chapter 5
    00:52:21.000                             : en:Chapter 6
    00:59:49.000                             : en:Chapter 7
    01:12:04.000                             : en:Chapter 8
    01:22:33.000                             : en:Chapter 9
    01:33:00.000                             : en:Chapter 10
    01:40:32.000                             : en:Chapter 11
    01:47:38.000                             : en:Chapter 12
    01:52:31.000                             : en:Chapter 13
    01:55:40.000                             : en:Chapter 14








与 GuajGuaj社区 的连接断开,我们正在尝试重连,请耐心等待