[2016][欧美][剧情][WEB-720P][BT下载]自然选择Naural.Selecion.2016.720p.WEB-DL.DD5.1.H264-FGT3.09GB


  • administrators

    Natural.Selection.2016.720p.WEB-DL.DD5.1.H264-FGT

    ◎译  名 自然选择

    ◎片  名 Natural Selection

    ◎年  代 2016

    ◎国  家 美国

    ◎类  别 剧情

    ◎语  言 英语

    ◎BT之家整理 http://www.btbtt.co 

    ◎片  长 120(美国)

    ◎导  演 Chad L. Scheifele

    ◎主  演 凯瑟琳·麦克纳马拉 Katherine McNamara

          安东尼·迈克尔·豪尔 Anthony Michael Hall

          Catherine Missal


    ◎简  介


      Natural Selection is a story of triumph and absolution. It explores both sides of human nature, where love as well as hate are separated by a thread and the potential corrosion of ones soul by the influence of evil.



    Video
    ID                                       : 1
    Format                                   : AVC
    Format/Info                              : Advanced Video Codec
    Format profile                           : [email protected]
    Format settings, CABAC                   : No
    Format settings, ReFrames                : 2 frames
    Codec ID                                 : V_MPEG4/ISO/AVC
    Duration                                 : 1h 41mn
    Bit rate                                 : 3 914 Kbps
    Width                                    : 1 280 pixels
    Height                                   : 532 pixels
    Display aspect ratio                     : 2.40:1
    Frame rate mode                          : Constant
    Frame rate                               : 23.976 fps
    Color space                              : YUV
    Chroma subsampling                       : 4:2:0
    Bit depth                                : 8 bits
    Scan type                                : Progressive
    Bits/(Pixel*Frame)                       : 0.240
    Stream size                              : 2.76 GiB (89%)
    Title                                    : Natural.Selection.2016.720p.WEB-DL.DD5.1.H264-FGT
    Language                                 : English
    Default                                  : Yes
    Forced                                   : No
    Color range                              : Limited
    Color primaries                          : BT.709
    Transfer characteristics                 : BT.709
    Matrix coefficients                      : BT.709

    Audio
    ID                                       : 2
    Format                                   : AC-3
    Format/Info                              : Audio Coding 3
    Mode extension                           : CM (complete main)
    Format settings, Endianness              : Big
    Codec ID                                 : A_AC3
    Duration                                 : 1h 41mn
    Bit rate mode                            : Constant
    Bit rate                                 : 384 Kbps
    Channel(s)                               : 6 channels
    Channel positions                        : Front: L C R, Side: L R, LFE
    Sampling rate                            : 48.0 KHz
    Frame rate                               : 31.250 fps (1536 spf)
    Compression mode                         : Lossy
    Stream size                              : 277 MiB (9%)
    Title                                    : Natural.Selection.2016.720p.WEB-DL.DD5.1.H264-FGT
    Language                                 : English
    Default                                  : Yes
    Forced                                   : No

    Text
    ID                                       : 3
    Format                                   : UTF-8
    Codec ID                                 : S_TEXT/UTF8
    Codec ID/Info                            : UTF-8 Plain Text
    Language                                 : English
    Default                                  : Yes
    Forced                                   : No

    Menu
    00:00:00.000                             : en:1
    00:09:31.000                             : en:2
    00:18:45.000                             : en:3
    00:30:24.000                             : en:4
    00:39:26.000                             : en:5
    00:51:16.000                             : en:6
    01:00:41.000                             : en:7
    01:09:29.000                             : en:8
    01:21:29.000                             : en:9
    01:29:03.000                             : en:10
    01:37:42.000                             : en:11






登录后回复
 

与 GuajGuaj社区 的连接断开,我们正在尝试重连,请耐心等待