[2010][欧美][恐怖][BD-1080P][BT下载]灭绝Eliminaion.2010.1080p.BluRay.x264.DD5.1-FGT6.45GB


  • administrators

    Elimination.2010.1080p.BluRay.x264.DD5.1-FGT

    ◎译  名 灭绝

    ◎片  名 Elimination

    ◎年  代 2010

    ◎国  家 美国

    ◎类  别 动作/恐怖/惊悚

    ◎语  言 英语

    ◎上映日期 2010

    ◎IMDb评分  3.4/10 from 472 users

    ◎IMDb链接  http://www.imdb.com/title/tt1078597/

    ◎豆瓣评分 3.9/10 from 280 users

    ◎豆瓣链接 http://movie.douban.com/subject/5190976/

    ◎片  长 88分钟

    ◎导  演 Juan Carlos Vargas


    ◎简  介


      十个演员为了100万美元参加真人秀节目。他们要做的只是从三个杀手中生存下来......



    Video
    ID                                       : 1
    Format                                   : AVC
    Format/Info                              : Advanced Video Codec
    Format profile                           : [email protected]
    Format settings, CABAC                   : Yes
    Format settings, ReFrames                : 4 frames
    Codec ID                                 : V_MPEG4/ISO/AVC
    Duration                                 : 1h 27mn
    Bit rate                                 : 9 734 Kbps
    Width                                    : 1 920 pixels
    Height                                   : 1 080 pixels
    Display aspect ratio                     : 16:9
    Frame rate mode                          : Constant
    Frame rate                               : 23.976 (24000/1001) fps
    Color space                              : YUV
    Chroma subsampling                       : 4:2:0
    Bit depth                                : 8 bits
    Scan type                                : Progressive
    Bits/(Pixel*Frame)                       : 0.196
    Stream size                              : 5.93 GiB (92%)
    Writing library                          : x264 core 115 r1995 c1e60b9
    Encoding settings                        : cabac=1 / ref=4 / deblock=1:0:0 / analyse=0x3:0x133 / me=umh / subme=7 / psy=1 / psy_rd=1.00:0.00 / mixed_ref=1 / me_range=16 / chroma_me=1 / trellis=1 / 8x8dct=1 / cqm=0 / deadzone=21,11 / fast_pskip=0 / chroma_qp_offset=-2 / threads=6 / sliced_threads=0 / nr=0 / decimate=1 / interlaced=0 / bluray_compat=0 / constrained_intra=0 / bframes=3 / b_pyramid=2 / b_adapt=1 / b_bias=0 / direct=3 / weightb=1 / open_gop=0 / weightp=2 / keyint=250 / keyint_min=23 / scenecut=40 / intra_refresh=0 / rc_lookahead=40 / rc=crf / mbtree=1 / crf=20.0 / qcomp=0.60 / qpmin=10 / qpmax=51 / qpstep=4 / ip_ratio=1.40 / aq=1:1.00
    Language                                 : English
    Default                                  : Yes
    Forced                                   : No

    Audio
    ID                                       : 2
    Format                                   : AC-3
    Format/Info                              : Audio Coding 3
    Mode extension                           : CM (complete main)
    Format settings, Endianness              : Big
    Codec ID                                 : A_AC3
    Duration                                 : 1h 27mn
    Bit rate mode                            : Constant
    Bit rate                                 : 640 Kbps
    Channel(s)                               : 6 channels
    Channel positions                        : Front: L C R, Side: L R, LFE
    Sampling rate                            : 48.0 KHz
    Frame rate                               : 31.250 fps (1536 spf)
    Compression mode                         : Lossy
    Stream size                              : 399 MiB (6%)
    Language                                 : English
    Default                                  : No
    Forced                                   : No








与 GuajGuaj社区 的连接断开,我们正在尝试重连,请耐心等待