[更早][欧美][喜剧][WEB-1080P][BT下载]夏日补习班/夏日学校Summer.School.1987.1080p.WEBRip.DD5.1.x264-monkee10.3GB


  • administrators

    Summer.School.1987.1080p.WEBRip.DD5.1.x264-monkee

    ◎译  名 夏日补习班/夏日学校/我爱夏晨

    ◎片  名 Summer School

    ◎年  代 1987

    ◎国  家 美国

    ◎类  别 喜剧/爱情

    ◎语  言 英语

    ◎上映日期 1988-01-22

    ◎IMDb评分  6.5/10 from 13,053 users

    ◎IMDb链接  http://www.imdb.com/title/tt0094072/

    ◎豆瓣评分 7.1/10 from 60 users

    ◎豆瓣链接 https://movie.douban.com/subject/1294258/

    ◎BT之家整理 http://www.btbtt.co

    ◎片  长 97 分钟

    ◎导  演 卡尔 赖纳 (Carl Reiner)

    ◎主  演 马克·哈蒙 Mark Harmon

          Kirstie Alley

          Robin Thomas

          Patrick Labyorteaux

          Courtney Thorne-Smith


    ◎简  介


      影片《夏日补习班》的故事发生在一个普通而又不平凡的暑假,高中体育老师在这个暑假有十分重大的计划,但是天不遂人愿,他不得不取消掉这个计划转而去教一群笨笨的学生。幸运的是这个老师的教育方式给了他很大的帮助,不同于学校传统的教育,这使得他和学生们之间建立起了微妙的联系,师生关系的接近让他们之间更加亲近,也得到了师生之间的尊敬。影片诙谐幽默,以搞笑的手法表现出了师生之间的关系,虽然看似无厘头,却给观众展现了不一样的师生关系。



    Video
    ID                                       : 1
    Format                                   : AVC
    Format/Info                              : Advanced Video Codec
    Format profile                           : [email protected]
    Format settings, CABAC                   : Yes
    Format settings, ReFrames                : 4 frames
    Codec ID                                 : V_MPEG4/ISO/AVC
    Duration                                 : 1h 36mn
    Bit rate mode                            : Variable
    Bit rate                                 : 14.4 Mbps
    Maximum bit rate                         : 15.0 Mbps
    Width                                    : 1 920 pixels
    Height                                   : 1 080 pixels
    Display aspect ratio                     : 16:9
    Frame rate mode                          : Constant
    Frame rate                               : 23.976 (24000/1001) fps
    Color space                              : YUV
    Chroma subsampling                       : 4:2:0
    Bit depth                                : 8 bits
    Scan type                                : Progressive
    Bits/(Pixel*Frame)                       : 0.289
    Stream size                              : 9.67 GiB (94%)
    Default                                  : No
    Forced                                   : No
    Color range                              : Limited
    Color primaries                          : BT.709
    Transfer characteristics                 : BT.709
    Matrix coefficients                      : BT.709

    Audio
    ID                                       : 2
    Format                                   : E-AC-3
    Format/Info                              : Audio Coding 3
    Format settings, Endianness              : Big
    Codec ID                                 : A_EAC3
    Duration                                 : 1h 36mn
    Bit rate mode                            : Constant
    Bit rate                                 : 640 Kbps
    Channel(s)                               : 6 channels
    Channel positions                        : Front: L C R, Side: L R, LFE
    Sampling rate                            : 48.0 KHz
    Frame rate                               : 187.500 fps (256 spf)
    Compression mode                         : Lossy
    Stream size                              : 440 MiB (4%)
    Language                                 : English
    Default                                  : Yes
    Forced                                   : No






与 GuajGuaj社区 的连接断开,我们正在尝试重连,请耐心等待