[2013][欧美][悬疑][BD-1080P][BT下载]被禁锢的女孩/禁忌少女The.Foridden.Girl.2013.1080p.BluRay.x264.DTS-FGT4.6GB


  • administrators

    ◎译  名 被禁锢的女孩/禁忌少女

    ◎片  名 The Forbidden Girl

    ◎年  代 2013

    ◎国  家 德国

    ◎类  别 悬疑

    ◎语  言 英语

    ◎IMDb评分  3.5/10 from 305 users

    ◎IMDb链接  http://www.imdb.com/title/tt1763305/

    ◎BT之家整理 http://www.btbtt.co 

    ◎片  长 105分钟

    ◎导  演 Till Hastreiter

    ◎主  演 Peter Gadiot

          Klaus Tange

          Jytte-Merle Böhrnsen

          詹妮特·海因 Jeanette Hain


    ◎简  介


      一名牧師的兒子愛上了巫婆。禁不住邪惡美麗的誘惑,他將陷入黑暗的深淵…


    Video
    ID                                       : 1
    Format                                   : AVC
    Format/Info                              : Advanced Video Codec
    Format profile                           : [email protected]
    Format settings, CABAC                   : Yes
    Format settings, ReFrames                : 4 frames
    Codec ID                                 : V_MPEG4/ISO/AVC
    Duration                                 : 1h 45mn
    Bit rate                                 : 5 439 Kbps
    Width                                    : 1 920 pixels
    Height                                   : 1 080 pixels
    Display aspect ratio                     : 16:9
    Frame rate mode                          : Constant
    Frame rate                               : 23.976 (24000/1001) fps
    Color space                              : YUV
    Chroma subsampling                       : 4:2:0
    Bit depth                                : 8 bits
    Scan type                                : Progressive
    Bits/(Pixel*Frame)                       : 0.109
    Stream size                              : 4.00 GiB (86%)
    Writing library                          : x264 core 135 r2345 f0c1c53
    Encoding settings                        : cabac=1 / ref=4 / deblock=1:-1:-1 / analyse=0x3:0x133 / me=umh / subme=7 / psy=1 / psy_rd=1.00:0.15 / mixed_ref=1 / me_range=16 / chroma_me=1 / trellis=1 / 8x8dct=1 / cqm=0 / deadzone=21,11 / fast_pskip=0 / chroma_qp_offset=-3 / threads=9 / lookahead_threads=1 / sliced_threads=0 / nr=0 / decimate=1 / interlaced=0 / bluray_compat=0 / constrained_intra=0 / bframes=3 / b_pyramid=2 / b_adapt=1 / b_bias=0 / direct=1 / weightb=1 / open_gop=0 / weightp=2 / keyint=250 / keyint_min=23 / scenecut=40 / intra_refresh=0 / rc_lookahead=40 / rc=crf / mbtree=1 / crf=20.0 / qcomp=0.60 / qpmin=0 / qpmax=69 / qpstep=4 / ip_ratio=1.40 / aq=1:1.00
    Default                                  : Yes
    Forced                                   : No

    Audio
    ID                                       : 2
    Format                                   : DTS
    Format/Info                              : Digital Theater Systems
    Mode                                     : 16
    Format settings, Endianness              : Big
    Codec ID                                 : A_DTS
    Duration                                 : 1h 45mn
    Bit rate mode                            : Constant
    Bit rate                                 : 768 Kbps
    Channel(s)                               : 6 channels
    Channel positions                        : Front: L C R, Side: L R, LFE
    Sampling rate                            : 48.0 KHz
    Frame rate                               : 93.750 fps (512 spf)
    Bit depth                                : 16 bits
    Compression mode                         : Lossy
    Stream size                              : 579 MiB (12%)
    Language                                 : English
    Default                                  : Yes
    Forced                                   : No





登录后回复
 

与 GuajGuaj社区 的连接断开,我们正在尝试重连,请耐心等待