[2012][欧美][剧情][BD-1080P]闪耀的花火/火花/花火Sparkle.2012.1080p.BluRay.x264.DTS-FGT8.51GB


  • administrators

    Sparkle.2012.1080p.BluRay.x264.DTS-FGT

    ◎译  名 闪耀的花火/火花/花火

    ◎片  名 Sparkle

    ◎年  代 2012

    ◎国  家 美国

    ◎类  别 剧情

    ◎语  言 英语

    ◎上映日期 2012-08-17(美国)

    ◎IMDb评分  5.6/10 from 4,969 users

    ◎IMDb链接  http://www.imdb.com/title/tt1876451/

    ◎豆瓣评分 6.4/10 from 453 users

    ◎豆瓣链接 http://movie.douban.com/subject/6390830/

    ◎片  长 116分钟

    ◎导  演 萨利姆·阿基尔 Salim Akil

    ◎主  演 惠特尼·休斯顿 Whitney Houston

          乔丁·斯巴克斯 Jordin Sparks

          卡门·艾乔戈 Carmen Ejogo

          德瑞克·卢克 Derek Luke

          迈克·艾普斯 Mike Epps

          提卡·森普特 Tika Sumpter

          欧玛瑞·哈德威克 Omari Hardwick

          席洛·格林 Cee-Lo

          柯蒂斯·阿姆斯壮 Curtis Armstrong


    ◎简  介


    音乐奇才斯派克尔正在努力地成为一名新星,但在另一方面,她的野心正在让她渐渐远离自己的家庭和亲人。斯派克尔来自于一个底特律的家庭,成长于一个单亲家庭,她的妈妈艾玛也很喜爱唱歌。


    Video
    ID                                       : 1
    Format                                   : AVC
    Format/Info                              : Advanced Video Codec
    Format profile                           : [email protected]
    Format settings, CABAC                   : Yes
    Format settings, ReFrames                : 5 frames
    Codec ID                                 : V_MPEG4/ISO/AVC
    Duration                                 : 1h 56mn
    Bit rate                                 : 8 765 Kbps
    Width                                    : 1 920 pixels
    Height                                   : 800 pixels
    Display aspect ratio                     : 2.40:1
    Frame rate mode                          : Constant
    Frame rate                               : 23.976 fps
    Color space                              : YUV
    Chroma subsampling                       : 4:2:0
    Bit depth                                : 8 bits
    Scan type                                : Progressive
    Bits/(Pixel*Frame)                       : 0.238
    Stream size                              : 7.12 GiB (84%)
    Writing library                          : x264 core 129 r2230 1cffe9f
    Encoding settings                        : cabac=1 / ref=5 / deblock=1:-3:-3 / analyse=0x3:0x133 / me=umh / subme=11 / psy=1 / psy_rd=0.90:0.00 / mixed_ref=1 / me_range=48 / chroma_me=1 / trellis=2 / 8x8dct=1 / cqm=0 / deadzone=21,11 / fast_pskip=0 / chroma_qp_offset=-2 / threads=12 / lookahead_threads=2 / sliced_threads=0 / nr=0 / decimate=1 / interlaced=0 / bluray_compat=0 / constrained_intra=0 / bframes=8 / b_pyramid=2 / b_adapt=2 / b_bias=0 / direct=3 / weightb=1 / open_gop=0 / weightp=2 / keyint=240 / keyint_min=24 / scenecut=40 / intra_refresh=0 / rc=crf / mbtree=0 / crf=17.9 / qcomp=0.60 / qpmin=0 / qpmax=69 / qpstep=4 / ip_ratio=1.40 / pb_ratio=1.30 / aq=1:0.80
    Language                                 : English
    Default                                  : Yes
    Forced                                   : No

    Audio
    ID                                       : 2
    Format                                   : DTS
    Format/Info                              : Digital Theater Systems
    Mode                                     : 16
    Format settings, Endianness              : Big
    Codec ID                                 : A_DTS
    Duration                                 : 1h 56mn
    Bit rate mode                            : Constant
    Bit rate                                 : 1 509 Kbps
    Channel(s)                               : 6 channels
    Channel positions                        : Front: L C R, Side: L R, LFE
    Sampling rate                            : 48.0 KHz
    Bit depth                                : 24 bits
    Compression mode                         : Lossy
    Stream size                              : 1.23 GiB (14%)
    Language                                 : English
    Default                                  : Yes
    Forced                                   : No

    Text
    ID                                       : 3
    Format                                   : UTF-8
    Codec ID                                 : S_TEXT/UTF8
    Codec ID/Info                            : UTF-8 Plain Text
    Language                                 : English
    Default                                  : No
    Forced                                   : No

    Menu
    00:00:00.000                             : :Chapter 01
    00:08:22.668                             : :Chapter 02
    00:14:27.700                             : :Chapter 03
    00:22:43.987                             : :Chapter 04
    00:28:07.060                             : :Chapter 05
    00:33:57.368                             : :Chapter 06
    00:38:24.176                             : :Chapter 07
    00:43:57.051                             : :Chapter 08
    00:52:52.294                             : :Chapter 09
    00:56:56.454                             : :Chapter 10
    01:07:54.862                             : :Chapter 11
    01:16:43.682                             : :Chapter 12
    01:21:00.230                             : :Chapter 13
    01:25:01.513                             : :Chapter 14
    01:33:31.647                             : :Chapter 15
    01:40:31.108                             : :Chapter 16






登录后回复
 

与 GuajGuaj社区 的连接断开,我们正在尝试重连,请耐心等待