[2012][欧美][动作][BD-1080P][BT下载]亚历克斯·克洛斯/神探追缉令Alex.Cross.2012.1080p.BluRay.x264.DTS-FGT13.7GB


  • administrators

    Alex.Cross.2012.1080p.BluRay.x264.DTS-FGT

    ◎译  名 亚历克斯·克洛斯/神探追缉令(港)/FBI重装戒备(台)

    ◎片  名 Alex Cross

    ◎年  代 2012

    ◎国  家 美国

    ◎类  别 动作/悬疑/犯罪

    ◎语  言 英语

    ◎上映日期 2012-10-19(美国)

    ◎IMDb评分  5.1/10 from 27,846 users

    ◎IMDb链接  http://www.imdb.com/title/tt1712170/

    ◎豆瓣评分 5.7/10 from 2,477 users

    ◎豆瓣链接 https://movie.douban.com/subject/5327201/

    ◎片  长 101分钟

    ◎导  演 罗伯·科恩 Rob Cohen

    ◎主  演 泰勒·派瑞 Tyler Perry

          马修·福克斯 Matthew Fox

          瑞秋·尼科尔斯 Rachel Nichols

          让·雷诺 Jean Reno

          吉安卡罗·埃斯波西托 Giancarlo Esposito

          斯蒂芬妮·雅格布森 Stephanie Jacobsen


    ◎简  介


      亚历克斯(泰勒·派瑞 Tyler Perry 饰)专门负责大型刑事案件的侦查和侦破。一名台湾女孩在一栋豪宅内遭受性虐杀,连同她的私人保镖等数人也都无一幸免,亚历克斯奉命接受此案的调查。而这起凶案似乎与环杀手迈克尔(马修·福克斯 Matthew Fox 饰)有关。他经验丰富、冷血残酷,总比警方快一步,每次犯案后都能顺利逃脱。为了挑衅亚历克斯,他在他们的结婚周年日给亚历克斯打了警告电话,并当着他的面杀死了他的妻子(瑞秋·尼科尔斯 Rachel Nichols 饰)。亚历克斯失去妻子的痛苦,也激发他抓拿迈克尔的决心。而通过对虐杀案抽丝剥茧慢慢靠近谋杀案的真相时,重要的涉案关系人却一一遭到杀害。最后艾力克斯追寻到了一个只要你有钱任何梦想都可以实现的性爱乐园,而涉案人的政商关系好到简直令人匪夷所思的地步,如果案情爆开来世界将为之震动.....


    ◎获奖情况


      第33届金酸莓奖  (2013)

      最差男主角(提名) 泰勒·派瑞


    Video
    ID                                       : 1
    Format                                   : AVC
    Format/Info                              : Advanced Video Codec
    Format profile                           : [email protected]
    Format settings, CABAC                   : Yes
    Format settings, ReFrames                : 4 frames
    Codec ID                                 : V_MPEG4/ISO/AVC
    Duration                                 : 1h 41mn
    Bit rate                                 : 18.0 Mbps
    Width                                    : 1 920 pixels
    Height                                   : 1 080 pixels
    Display aspect ratio                     : 16:9
    Frame rate mode                          : Constant
    Frame rate                               : 24.000 fps
    Color space                              : YUV
    Chroma subsampling                       : 4:2:0
    Bit depth                                : 8 bits
    Scan type                                : Progressive
    Bits/(Pixel*Frame)                       : 0.362
    Stream size                              : 12.4 GiB (90%)
    Writing library                          : x264 core 128 r2216 198a7ea
    Encoding settings                        : cabac=1 / ref=4 / deblock=1:-3:-3 / analyse=0x3:0x113 / me=umh / subme=11 / psy=1 / psy_rd=1.30:0.10 / mixed_ref=1 / me_range=48 / chroma_me=1 / trellis=2 / 8x8dct=1 / cqm=0 / deadzone=21,11 / fast_pskip=0 / chroma_qp_offset=-3 / threads=16 / lookahead_threads=2 / sliced_threads=0 / nr=0 / decimate=0 / interlaced=0 / bluray_compat=0 / constrained_intra=0 / bframes=8 / b_pyramid=2 / b_adapt=2 / b_bias=0 / direct=3 / weightb=1 / open_gop=0 / weightp=2 / keyint=240 / keyint_min=24 / scenecut=40 / intra_refresh=0 / rc_lookahead=40 / rc=2pass / mbtree=0 / bitrate=18000 / ratetol=1.0 / qcomp=0.70 / qpmin=0 / qpmax=69 / qpstep=4 / cplxblur=20.0 / qblur=0.5 / vbv_maxrate=50000 / vbv_bufsize=62500 / nal_hrd=none / ip_ratio=1.40 / pb_ratio=1.30 / aq=2:0.70
    Language                                 : English
    Default                                  : Yes
    Forced                                   : No
    Color range                              : Limited
    Matrix coefficients                      : BT.709

    Audio
    ID                                       : 2
    Format                                   : DTS
    Format/Info                              : Digital Theater Systems
    Mode                                     : 16
    Format settings, Endianness              : Big
    Codec ID                                 : A_DTS
    Duration                                 : 1h 41mn
    Bit rate mode                            : Constant
    Bit rate                                 : 1 509 Kbps
    Channel(s)                               : 6 channels
    Channel positions                        : Front: L C R, Side: L R, LFE
    Sampling rate                            : 48.0 KHz
    Frame rate                               : 93.750 fps (512 spf)
    Bit depth                                : 16 bits
    Compression mode                         : Lossy
    Stream size                              : 1.07 GiB (8%)
    Language                                 : English
    Default                                  : Yes
    Forced                                   : No

    Text
    ID                                       : 3
    Format                                   : UTF-8
    Codec ID                                 : S_TEXT/UTF8
    Codec ID/Info                            : UTF-8 Plain Text
    Language                                 : English
    Default                                  : No
    Forced                                   : No

    Menu
    00:00:00.000                             : en:Chapter 01
    00:05:00.000                             : en:Chapter 02
    00:10:00.000                             : en:Chapter 03
    00:15:00.000                             : en:Chapter 04
    00:20:00.000                             : en:Chapter 05
    00:25:00.000                             : en:Chapter 06
    00:30:00.000                             : en:Chapter 07
    00:35:00.000                             : en:Chapter 08
    00:40:00.000                             : en:Chapter 09
    00:45:00.000                             : en:Chapter 10
    00:50:00.000                             : en:Chapter 11
    00:55:00.000                             : en:Chapter 12
    01:00:00.000                             : en:Chapter 13
    01:05:00.000                             : en:Chapter 14
    01:10:00.000                             : en:Chapter 15
    01:15:00.000                             : en:Chapter 16
    01:20:00.000                             : en:Chapter 17
    01:25:00.000                             : en:Chapter 18
    01:30:00.000                             : en:Chapter 19
    01:35:00.000                             : en:Chapter 20
    01:40:00.000                             : en:Chapter 21







与 GuajGuaj社区 的连接断开,我们正在尝试重连,请耐心等待