[更早][欧美][剧情][BD-1080P]灵魂歌王/雷/骚灵乐父/狂爱乐与怒/光芒Ray.2004.1080p.BluRay.x264.DTS-FGT14.91GB


  • administrators

    Ray.2004.1080p.BluRay.x264.DTS-FGT

    ◎译  名 灵魂歌王/雷/骚灵乐父/心灵传奇——雷.查尔斯的一生/狂爱乐与怒/光芒

    ◎片  名 Ray

    ◎年  代 2004

    ◎国  家 美国

    ◎类  别 传记/剧情/音乐

    ◎语  言 英语

    ◎上映日期 2004-05-29

    ◎IMDb评分  7.8/10 from 100,303 users

    ◎IMDb链接  http://www.imdb.com/title/tt0350258/

    ◎豆瓣评分 8.3/10 from 8,173 users

    ◎豆瓣链接 http://movie.douban.com/subject/1309085/

    ◎片  长 152 分钟/178 分钟(加长版)

    ◎导  演 泰勒·海克福德 Taylor Hackford

    ◎主  演 杰米·福克斯 Jamie Foxx

          雷吉娜·金 Regina King

          凯丽·华盛顿 Kerry Washington


    ◎简  介


      这是一部传记电影。雷•查尔斯(杰米•福克斯 Jamie Foxx 饰)出生在一个贫穷的黑人家庭,因缺乏必要医疗条件,年少的查尔斯就因青光眼丧失了视力。然而,在母亲言传身教下,小查尔斯没有从此自暴自弃,而是很快熟悉了盲文,并通过盲文接触了他人生的第一个乐谱。

      查尔斯很快就在音乐上展现出了他过人的天赋。他的很多乐器演奏功力早已超出了很多视力正常的音乐家的高度。

      母亲过世后,年少的查尔斯辍学开始了他的巡回演唱会。60年代,他带来了他独创的将乡村、爵士、管弦和教会音乐融合为一体的骚灵音乐,引起了音乐界巨大的反响……


    ◎获奖情况


      第77届奥斯卡金像奖 (2005)

      最佳影片(提名) 泰勒·海克福德 / 斯图亚特·本杰明 / 霍华德·鲍尔温

      最佳导演(提名) 泰勒·海克福德

      最佳男主角 杰米·福克斯

      最佳剪辑(提名) 保罗·赫希

      最佳混音 Scott Millan / Bob Beemer / Steve Cantamessa / Greg Orloff

      最佳服装设计(提名) 雪伦·戴维斯


      第14届MTV电影奖 (2005)

      MTV电影奖 年度电影(提名)

      MTV电影奖 最佳男演员(提名) 杰米·福克斯


    Video
    ID                                       : 1
    Format                                   : AVC
    Format/Info                              : Advanced Video Codec
    Format profile                           : [email protected]
    Format settings, CABAC                   : Yes
    Format settings, ReFrames                : 4 frames
    Codec ID                                 : V_MPEG4/ISO/AVC
    Duration                                 : 2h 32mn
    Bit rate                                 : 12.5 Mbps
    Width                                    : 1 920 pixels
    Height                                   : 1 040 pixels
    Display aspect ratio                     : 1.85:1
    Frame rate mode                          : Constant
    Frame rate                               : 23.976 fps
    Color space                              : YUV
    Chroma subsampling                       : 4:2:0
    Bit depth                                : 8 bits
    Scan type                                : Progressive
    Bits/(Pixel*Frame)                       : 0.261
    Stream size                              : 13.0 GiB (87%)
    Writing library                          : x264 core 114 r1924 08d04a4
    Encoding settings                        : cabac=1 / ref=4 / deblock=1:-3:-3 / analyse=0x3:0x133 / me=umh / subme=10 / psy=1 / psy_rd=1.10:0.00 / mixed_ref=1 / me_range=64 / chroma_me=1 / trellis=2 / 8x8dct=1 / cqm=0 / deadzone=21,11 / fast_pskip=0 / chroma_qp_offset=-2 / threads=12 / sliced_threads=0 / nr=0 / decimate=0 / interlaced=0 / constrained_intra=0 / bframes=7 / b_pyramid=2 / b_adapt=2 / b_bias=0 / direct=1 / weightb=1 / open_gop=0 / weightp=2 / keyint=250 / keyint_min=23 / scenecut=40 / intra_refresh=0 / rc_lookahead=40 / rc=2pass / mbtree=0 / bitrate=12500 / ratetol=1.0 / qcomp=0.60 / qpmin=0 / qpmax=69 / qpstep=4 / cplxblur=20.0 / qblur=0.5 / vbv_maxrate=50000 / vbv_bufsize=62500 / nal_hrd=none / ip_ratio=1.40 / pb_ratio=1.30 / aq=1:0.80
    Language                                 : English
    Default                                  : Yes
    Forced                                   : No
    Color range                              : Limited
    Color primaries                          : BT.709
    Transfer characteristics                 : BT.709
    Matrix coefficients                      : BT.709

    Audio
    ID                                       : 2
    Format                                   : DTS
    Format/Info                              : Digital Theater Systems
    Mode                                     : 16
    Format settings, Endianness              : Big
    Codec ID                                 : A_DTS
    Duration                                 : 2h 32mn
    Bit rate mode                            : Constant
    Bit rate                                 : 1 509 Kbps
    Channel(s)                               : 6 channels
    Channel positions                        : Front: L C R, Side: L R, LFE
    Sampling rate                            : 48.0 KHz
    Bit depth                                : 24 bits
    Compression mode                         : Lossy
    Stream size                              : 1.61 GiB (11%)
    Language                                 : English
    Default                                  : Yes
    Forced                                   : No

    Text
    ID                                       : 3
    Format                                   : UTF-8
    Codec ID                                 : S_TEXT/UTF8
    Codec ID/Info                            : UTF-8 Plain Text
    Language                                 : English
    Default                                  : No
    Forced                                   : No






登录后回复
 

与 GuajGuaj社区 的连接断开,我们正在尝试重连,请耐心等待