[更早][欧美][剧情][BD-1080P][BT下载]我的左脚/无悔今生My.Lef.Foo.1989.1080p.BluRay.x264.DTS-FGT12.67GB


  • administrators

    My.Left.Foot.The.Story.of.Christy.Brown.1989.1080p.BluRay.x264.DTS-FGT

    ◎译  名 我的左脚/无悔今生

    ◎片  名 My Left Foot

    ◎年  代 1989

    ◎国  家 爱尔兰/英国

    ◎类  别 传记/剧情

    ◎语  言 英语

    ◎上映日期 1989-09-13

    ◎IMDb评分  7.9/10 from 49,297 users

    ◎IMDb链接  http://www.imdb.com/title/tt0097937/

    ◎豆瓣评分 8.4/10 from 8,399 users

    ◎豆瓣链接 https://movie.douban.com/subject/1294000/

    ◎片  长 103 分钟

    ◎导  演 吉姆·谢里丹 Jim Sheridan

    ◎主  演 丹尼尔·戴-刘易斯 Daniel Day-Lewis

          布兰达·弗里克 Brenda Fricker

          Alison Whelan

          科斯汀·谢里丹 Kirsten Sheridan

          费奥纳·肖 Fiona Shaw


    ◎简  介


      本片改编自已故爱尔兰天才作家兼画家克里斯蒂•布朗的自传体小说。

      基提(丹尼尔•戴-刘易斯 Daniel Day-Lewis 饰)天生大脑麻痹身体残疾,只有左脚能灵活如常人。他没有生活自理能力,为家里带来了很大的负担,幼时总是遭到周围孩子的嘲弄,父亲险些放弃他,而母亲(布兰达•弗里克 Brenda Fricker 饰)却一直对他悉心照顾,不离不弃。基提心理苦闷却不能用语言来表达,试图用左脚写字作画,渐渐地凭借毅力和智慧,基提越来越得到认可。母亲悄悄地为基提买了轮椅,之后他又得到了艾莲医生的免费救助。在艾莲的锻炼引导下,基提的身体开始有了好转。此时基提已经爱上了艾莲。某日艾莲将基提的画推荐到了朋友的画廊展出。结束后基提向艾莲表达爱意,却被她拒绝......


    ◎获奖情况


      第62届奥斯卡金像奖  (1990)

      最佳影片(提名) Noel Pearson

      最佳导演(提名) 吉姆·谢里丹

      最佳男主角 丹尼尔·戴-刘易斯

      最佳女配角 布兰达·弗里克

      最佳改编剧本(提名) 吉姆·谢里丹 / Shane Connaughton


    Video
    ID                                       : 1
    Format                                   : AVC
    Format/Info                              : Advanced Video Codec
    Format profile                           : [email protected]
    Format settings, CABAC                   : Yes
    Format settings, ReFrames                : 4 frames
    Codec ID                                 : V_MPEG4/ISO/AVC
    Duration                                 : 1h 43mn
    Bit rate                                 : 15.7 Mbps
    Width                                    : 1 920 pixels
    Height                                   : 1 080 pixels
    Display aspect ratio                     : 16:9
    Frame rate mode                          : Constant
    Frame rate                               : 23.976 (24000/1001) fps
    Color space                              : YUV
    Chroma subsampling                       : 4:2:0
    Bit depth                                : 8 bits
    Scan type                                : Progressive
    Bits/(Pixel*Frame)                       : 0.316
    Stream size                              : 11.3 GiB (89%)
    Writing library                          : x264 core 142 r2431 ac76440
    Encoding settings                        : cabac=1 / ref=4 / deblock=1:-1:-1 / analyse=0x3:0x113 / me=umh / subme=10 / psy=1 / psy_rd=1.00:0.15 / mixed_ref=1 / me_range=32 / chroma_me=1 / trellis=2 / 8x8dct=1 / cqm=0 / deadzone=21,11 / fast_pskip=1 / chroma_qp_offset=-3 / threads=6 / lookahead_threads=1 / sliced_threads=0 / nr=0 / decimate=1 / interlaced=0 / bluray_compat=0 / constrained_intra=0 / bframes=8 / b_pyramid=2 / b_adapt=2 / b_bias=0 / direct=3 / weightb=1 / open_gop=0 / weightp=2 / keyint=230 / keyint_min=23 / scenecut=40 / intra_refresh=0 / rc_lookahead=40 / rc=crf / mbtree=0 / crf=18.6 / qcomp=0.60 / qpmin=0 / qpmax=69 / qpstep=4 / vbv_maxrate=40000 / vbv_bufsize=50000 / crf_max=0.0 / nal_hrd=none / filler=0 / ip_ratio=1.40 / pb_ratio=1.30 / aq=1:1.00
    Language                                 : English
    Default                                  : Yes
    Forced                                   : No

    Audio
    ID                                       : 2
    Format                                   : DTS
    Format/Info                              : Digital Theater Systems
    Mode                                     : 16
    Format settings, Endianness              : Big
    Codec ID                                 : A_DTS
    Duration                                 : 1h 43mn
    Bit rate mode                            : Constant
    Bit rate                                 : 1 509 Kbps
    Channel(s)                               : 6 channels
    Channel positions                        : Front: L C R, Side: L R, LFE
    Sampling rate                            : 48.0 KHz
    Frame rate                               : 93.750 fps (512 spf)
    Bit depth                                : 24 bits
    Compression mode                         : Lossy
    Stream size                              : 1.09 GiB (9%)
    Language                                 : English
    Default                                  : No
    Forced                                   : No

    Text
    ID                                       : 3
    Format                                   : UTF-8
    Codec ID                                 : S_TEXT/UTF8
    Codec ID/Info                            : UTF-8 Plain Text
    Language                                 : English
    Default                                  : Yes
    Forced                                   : No

    Menu
    00:00:00.000                             : en:The Original
    00:06:57.250                             : en:Complications
    00:13:10.999                             : en Is for Dunce
    00:21:00.926                             : en:All Souls
    00:27:54.590                             : en:Goalie
    00:31:40.899                             : en:First Love
    00:37:48.057                             : en:Coal
    00:45:56.170                             : en:Look After Ma
    00:51:36.302                             : enr. Cole
    00:57:09.092                             : en:Eileen
    01:06:33.031                             : en:Triumph and Heartbreak
    01:14:22.958                             : enutty on the Inside
    01:20:15.310                             : en:Wake
    01:27:20.318                             : en:My Own Story
    01:34:10.687                             : en:Stay With Me
    01:40:38.366                             : en:End Credits







登录后回复
 

与 GuajGuaj社区 的连接断开,我们正在尝试重连,请耐心等待