[更早][欧美][恐怖][BD-1080P][BT下载]异世谎言/第二个名字Second.Name.2002.1080p.BluRay.x264.DTS-FGT7.02GB


  • administrators

    Second.Name.2002.1080p.BluRay.x264.DTS-FGT

    ◎译  名 异世谎言/第二个名字

    ◎片  名 Segundo nombre, El

    ◎年  代 2002

    ◎国  家 西班牙

    ◎类  别 恐怖/惊悚

    ◎语  言 英语

    ◎上映日期 2002-11-15

    ◎IMDb评分  5.6/10 from 890 users

    ◎IMDb链接  http://www.imdb.com/title/tt0303021/

    ◎豆瓣评分 6.2/10 from 86 users

    ◎豆瓣链接 https://movie.douban.com/subject/1308731/

    ◎BT之家整理 http://www.btbtt.co

    ◎导  演 Paco Plaza


    ◎简  介


      ◎简  介

      事业有成及拥有崇高社会地位的狄奥多独自驾车到幽僻的森林中自尽。天真无邪的丹尼儿为追寻父亲自杀的真相而发现了一个惊人的秘密。一个处处为女儿设想的慈父竟是一个丧尽天良、残暴不仁的人物。一连串的谎言,不为人知的秘密,令丹尼儿惊觉这个看似平静和谐的电影小镇竟是一个黑暗腐败的地方,更逐步把她推向地狱的深渊……

      ◎ 获奖情况

      ★ 青年鬼才导演帕卡布拉札的奠基之作

      ★ 世界知名加泰隆恐怖片电影大赏银奖

      ★ 获2002年西班牙巴塞罗那电影节多项大奖



    Video
    ID                                       : 1
    Format                                   : AVC
    Format/Info                              : Advanced Video Codec
    Format profile                           : [email protected]
    Format settings, CABAC                   : Yes
    Format settings, ReFrames                : 4 frames
    Codec ID                                 : V_MPEG4/ISO/AVC
    Duration                                 : 1h 38mn
    Bit rate                                 : 8 447 Kbps
    Width                                    : 1 920 pixels
    Height                                   : 1 040 pixels
    Display aspect ratio                     : 1.85:1
    Frame rate mode                          : Constant
    Frame rate                               : 24.000 fps
    Color space                              : YUV
    Chroma subsampling                       : 4:2:0
    Bit depth                                : 8 bits
    Scan type                                : Progressive
    Bits/(Pixel*Frame)                       : 0.176
    Stream size                              : 5.84 GiB (83%)
    Writing library                          : x264 core 140 r2377 1ca7bb9
    Encoding settings                        : cabac=1 / ref=4 / deblock=1:-3:-3 / analyse=0x3:0x113 / me=umh / subme=7 / psy=1 / psy_rd=1.00:0.00 / mixed_ref=1 / me_range=16 / chroma_me=1 / trellis=1 / 8x8dct=1 / cqm=0 / deadzone=21,11 / fast_pskip=0 / chroma_qp_offset=-2 / threads=10 / lookahead_threads=1 / sliced_threads=0 / nr=0 / decimate=1 / interlaced=0 / bluray_compat=0 / constrained_intra=0 / bframes=3 / b_pyramid=2 / b_adapt=1 / b_bias=0 / direct=3 / weightb=1 / open_gop=0 / weightp=2 / keyint=250 / keyint_min=24 / scenecut=40 / intra_refresh=0 / rc_lookahead=40 / rc=crf / mbtree=1 / crf=20.0 / qcomp=0.60 / qpmin=0 / qpmax=69 / qpstep=4 / ip_ratio=1.40 / aq=1:1.00
    Language                                 : English
    Default                                  : Yes
    Forced                                   : No

    Audio
    ID                                       : 2
    Format                                   : DTS
    Format/Info                              : Digital Theater Systems
    Mode                                     : 16
    Format settings, Endianness              : Big
    Codec ID                                 : A_DTS
    Duration                                 : 1h 38mn
    Bit rate mode                            : Constant
    Bit rate                                 : 1 509 Kbps
    Channel(s)                               : 6 channels
    Channel positions                        : Front: L C R, Side: L R, LFE
    Sampling rate                            : 48.0 KHz
    Frame rate                               : 93.750 fps (512 spf)
    Bit depth                                : 24 bits
    Compression mode                         : Lossy
    Stream size                              : 1.04 GiB (15%)
    Language                                 : English
    Default                                  : Yes
    Forced                                   : No

    Menu
    00:00:00.000                             : en:00:00:00.000
    00:11:21.375                             : en:00:11:21.375
    00:23:01.625                             : en:00:23:01.625
    00:35:38.542                             : en:00:35:38.542
    00:50:21.958                             : en:00:50:21.958
    01:04:05.458                             : en:01:04:05.458
    01:13:01.167                             : en:01:13:01.167
    01:22:01.958                             : en:01:22:01.958







与 GuajGuaj社区 的连接断开,我们正在尝试重连,请耐心等待