[更早][欧美][恐怖][WEB-1080P][BT下载]银色子弹/狼魔Silver.Bulle.1985.1080p.WEBRip.DD2.0.x264-monkee7.38GB


  • administrators

    ◎译  名 银色子弹/狼魔

    ◎片  名 Silver Bullet

    ◎年  代 1985

    ◎国  家 美国

    ◎类  别 冒险/剧情/恐怖/悬疑/惊悚

    ◎语  言 英语

    ◎上映日期 1985-10-11

    ◎IMDb评分  6.4/10 from 17,214 users

    ◎IMDb链接  http://www.imdb.com/title/tt0090021/

    ◎豆瓣评分 6.7/10 from 115 users

    ◎豆瓣链接 https://movie.douban.com/subject/1298658/

    ◎BT之家整理 http://www.btbtt.co 

    ◎片  长 95 分钟

    ◎导  演 Daniel Attias


    ◎简  介


      在一个小镇里,近日出现了一名凶残的狂人,接二连三犯案,涉及多宗令人呕吐的谋杀事件,令整个小镇的人都惶恐渡日。每当入夜,各家各户都紧闭门窗户,唯独是一名男孩子在入夜时仍在街上流连…



    Video
    ID                                       : 1
    Format                                   : AVC
    Format/Info                              : Advanced Video Codec
    Format profile                           : [email protected]
    Format settings, CABAC                   : Yes
    Format settings, ReFrames                : 4 frames
    Codec ID                                 : V_MPEG4/ISO/AVC
    Duration                                 : 1h 34mn
    Bit rate mode                            : Variable
    Bit rate                                 : 10.9 Mbps
    Maximum bit rate                         : 15.0 Mbps
    Width                                    : 1 920 pixels
    Height                                   : 816 pixels
    Display aspect ratio                     : 2.35:1
    Frame rate mode                          : Constant
    Frame rate                               : 23.976 (24000/1001) fps
    Color space                              : YUV
    Chroma subsampling                       : 4:2:0
    Bit depth                                : 8 bits
    Scan type                                : Progressive
    Bits/(Pixel*Frame)                       : 0.291
    Stream size                              : 7.23 GiB (98%)
    Writing library                          : x264 core 148 r2623 d5b2374
    Encoding settings                        : cabac=1 / ref=4 / deblock=1:-1:-1 / analyse=0x3:0x133 / me=umh / subme=9 / psy=1 / psy_rd=1.00:0.15 / mixed_ref=1 / me_range=24 / chroma_me=1 / trellis=2 / 8x8dct=1 / cqm=0 / deadzone=21,11 / fast_pskip=1 / chroma_qp_offset=-3 / threads=25 / lookahead_threads=4 / sliced_threads=0 / nr=150 / decimate=1 / interlaced=0 / bluray_compat=0 / constrained_intra=0 / bframes=8 / b_pyramid=2 / b_adapt=2 / b_bias=0 / direct=3 / weightb=1 / open_gop=0 / weightp=2 / keyint=120 / keyint_min=61 / scenecut=0 / intra_refresh=0 / rc_lookahead=120 / rc=crf / mbtree=1 / crf=18.0 / qcomp=0.60 / qpmin=0 / qpmax=69 / qpstep=4 / vbv_maxrate=15000 / vbv_bufsize=31250 / crf_max=0.0 / nal_hrd=vbr / filler=0 / ip_ratio=1.40 / aq=3:1.00
    Default                                  : Yes
    Forced                                   : No
    Color range                              : Limited
    Color primaries                          : BT.709
    Transfer characteristics                 : BT.709
    Matrix coefficients                      : BT.709

    Audio
    ID                                       : 2
    Format                                   : E-AC-3
    Format/Info                              : Audio Coding 3
    Format settings, Endianness              : Big
    Codec ID                                 : A_EAC3
    Duration                                 : 1h 34mn
    Bit rate mode                            : Constant
    Bit rate                                 : 224 Kbps
    Channel(s)                               : 2 channels
    Channel positions                        : Front: L R
    Sampling rate                            : 48.0 KHz
    Frame rate                               : 187.500 fps (256 spf)
    Compression mode                         : Lossy
    Stream size                              : 152 MiB (2%)
    Language                                 : English
    Default                                  : Yes
    Forced                                   : No

    Text
    ID                                       : 3
    Format                                   : UTF-8
    Codec ID                                 : S_TEXT/UTF8
    Codec ID/Info                            : UTF-8 Plain Text
    Duration                                 : 1h 32mn
    Bit rate                                 : 35 bps
    Count of elements                        : 1074
    Stream size                              : 24.1 KiB (0%)
    Language                                 : English
    Default                                  : No
    Forced                                   : No







与 GuajGuaj社区 的连接断开,我们正在尝试重连,请耐心等待