[2014][欧美][动作][BD-1080P][BT]美国队长2.2014.BluRay.1080p.x264.AAC6.2Audios-DiaosMan[mp4/5.7G][国英/中英特效]


  • administrators

    整剧均由DiaosMan个人压制完成。为更好控制文件大小,以H.264或HEVC(H.265)+硬字幕+AC3或AAC.MP4格式压制。为了大家更好的观赏视频DiaosMan承若绝不在字幕和视频中添加任何与影片无关的信息和水印。请大家转载时请在著名DiaosMan压制。

    DiaosMan个人是对电影的爱好,希望带给大家好的东西,所以利用业余时间压制,发布时间相对较慢,但基本保证每星期发有两到三部影片或剧集。

    DiaosMan压制所用视频源和字幕均来自网络,如侵犯到任何个人或公司团体组织权益请及时与我留言,我将第一时间删除。

     

     

    ◎片  名 - 美国队长2:冬日战士

    ◎译  名 - Captain America: The Winter Soldier

    ◎年  代 - 201444

    ◎国  家 - 美国

    ◎语  言 - 国语、英语

    ◎IMDb链接 - http://www.imdb.com/title/tt1843866/

    ◎片  长 - 128分钟

    ◎导  演 - 安东尼·罗素、乔·罗素

    ◎主  演 - 克里斯·埃文斯,塞巴斯蒂安·斯坦,斯嘉丽·约翰逊,安东尼·麦凯,塞缪尔·杰克逊

    ◎简  介 - 在经历了《复仇者联盟》的纽约大战后,美国队长史蒂夫·罗杰斯如今在华盛顿过着恬淡的生活,努力尝试着融入现代社会。然而当一名神盾局同事遭遇袭击后,史蒂夫被迫卷入了一场威胁全球安危的阴谋。他与黑寡妇携手出击,一边防备欲将自己灭口的杀手,一边努力揭露这个巨大阴谋的真面目。而当敌人的邪恶计划全局曝光后,美国队长和黑寡妇得到了一位新同盟猎鹰的协助。然而他们也发现自己将要面临的,是前所未遇、出乎意料的黑暗劲敌——冬兵。

     

    ◎编码参数 - 

    General

    Complete name                    : 美国队长2:冬日战士.Captain America:The WinterSoldier.2014.BluRay.1080p.x264.AAC6.2Audios.中英特效-DiaosMan.mp4

    Format                           : MPEG-4

    Format profile                   : Base Media

    Codec ID                         : isom

    File size                        : 5.70 GiB

    Duration                         : 2h 15mn

    Overall bit rate                 : 6 005 Kbps

    Encoded date                     : UTC 2016-05-07 01:14:43

    Tagged date                      : UTC 2016-05-07 01:14:43

     

    Video

    ID                               : 1

    Format                           : AVC

    Format/Info                      : Advanced Video Codec

    Format profile                   : [email protected]

    Format settings, CABAC           : No

    Format settings, ReFrames        : 1 frame

    Codec ID                         : avc1

    Codec ID/Info                    : Advanced Video Coding

    Duration                         : 2h 15mn

    Bit rate mode                    : Variable

    Bit rate                         : 5 120 Kbps

    Maximum bit rate                 : 63.2 Mbps

    Width                            : 1 920 pixels

    Height                           : 1 080 pixels

    Display aspect ratio             : 16:9

    Frame rate mode                  : Constant

    Frame rate                       : 23.976 fps

    Color space                      : YUV

    Chroma subsampling               : 4:2:0

    Bit depth                        : 8 bits

    Scan type                        : Progressive

    Bits/(Pixel*Frame)               : 0.103

    Stream size                      : 4.85 GiB (85%)

    Writing library                  : x264 core 116 r2019 9cc407d

    Encoding settings                : cabac=0 / ref=1 /deblock=1:0:0 / analyse=0x3:0x113 / me=hex / subme=7 / psy=1 / psy_rd=1.00:0.00/ mixed_ref=0 / me_range=16 / chroma_me=1 / trellis=1 / 8x8dct=1 / cqm=0 /deadzone=21,11 / fast_pskip=1 / chroma_qp_offset=-2 / threads=6 /sliced_threads=0 / nr=0 / decimate=1 / interlaced=0 / bluray_compat=0 /constrained_intra=0 / bframes=0 / weightp=2 / keyint=250 / keyint_min=23 /scenecut=40 / intra_refresh=0 / rc_lookahead=40 / rc=abr / mbtree=1 /bitrate=5120 / ratetol=1.0 / qcomp=0.60 / qpmin=0 / qpmax=69 / qpstep=4 /ip_ratio=1.40 / aq=1:1.00

    Encoded date                     : UTC 2016-05-06 19:03:33

    Tagged date                      : UTC 2016-05-07 01:16:34

     

    Audio #1

    ID                              : 2

    Format                           : AC-3

    Format/Info                      : Audio Coding 3

    Mode extension                   : CM (complete main)

    Codec ID                         : ac-3

    Duration                         : 2h 15mn

    Bit rate mode                    : Constant

    Bit rate                         : 640 Kbps

    Maximum bit rate                 : 676 Kbps

    Channel(s)                       : 6 channels

    Channel positions                : Front: L C R, Side: L R, LFE

    Sampling rate                    : 48.0 KHz

    Bit depth                        : 16 bits

    Compression mode                 : Lossy

    Stream size                      : 622 MiB (11%)

    Title                            : 国语 5.1

    Language                         : Chinese

    Encoded date                     : UTC 2016-05-07 01:16:06

    Tagged date                      : UTC 2016-05-07 01:16:34

     

    Audio #2

    ID                               : 3

    Format                           : AC-3

    Format/Info                      : Audio Coding 3

    Mode extension                   : CM (complete main)

    Codec ID                         : ac-3

    Duration                         : 2h 15mn

    Bit rate mode                    : Constant

    Bit rate                         : 256 Kbps

    Maximum bit rate                 : 270 Kbps

    Channel(s)                       : 6 channels

    Channel positions                : Front: L C R, Side: L R, LFE

    Sampling rate                    : 48.0 KHz

    Bit depth                        : 16 bits

    Compression mode                 : Lossy

    Stream size                      : 249 MiB (4%)

    Title                            : 英语 5.1

    Language                         : English

    Encoded date                     : UTC 2016-05-07 01:16:23

    Tagged date                      : UTC 2016-05-07 01:16:34

     

    ◎视频截图

     




登录后回复
 

与 GuajGuaj社区 的连接断开,我们正在尝试重连,请耐心等待