[更早][欧美][恐怖][WEB-720P][BT下载]母亲节/恐怖母亲节Mohers.Days.1980.1080p.BluRay.x264.DTS-FGT5.73GB


  • administrators

    Mothers.Days.1980.1080p.BluRay.x264.DTS-FGT

    ◎译  名 母亲节/恐怖母亲节

    ◎片  名 Mother's Day

    ◎年  代 1980

    ◎国  家 美国

    ◎类  别 恐怖/惊悚

    ◎语  言 英语

    ◎上映日期 1981-01-15

    ◎IMDb评分  5.4/10 from 3,182 users

    ◎IMDb链接  http://www.imdb.com/title/tt0081186/

    ◎豆瓣评分 5.4/10 from 14 users

    ◎豆瓣链接 http://movie.douban.com/subject/1947284/

    ◎片  长 90 分钟/Australia: 98 分钟/Germany: 76 分钟(cut version)

    ◎导  演 洛伊德·考夫曼 Charles Kaufman

    ◎主  演 Nancy Hendrickson

          Deborah Luce


    ◎简  介


      一位疯狂而变态的母亲,带领着他的两个儿子回到原来的住所,并恐吓甚至屠杀房子里的新主人以及他们的客人


    Video
    ID                                       : 1
    Format                                   : AVC
    Format/Info                              : Advanced Video Codec
    Format profile                           : [email protected]
    Format settings, CABAC                   : Yes
    Format settings, ReFrames                : 4 frames
    Codec ID                                 : V_MPEG4/ISO/AVC
    Duration                                 : 1h 17mn
    Bit rate                                 : 9 063 Kbps
    Width                                    : 1 920 pixels
    Height                                   : 1 040 pixels
    Display aspect ratio                     : 1.85:1
    Frame rate mode                          : Constant
    Frame rate                               : 23.976 (24000/1001) fps
    Color space                              : YUV
    Chroma subsampling                       : 4:2:0
    Bit depth                                : 8 bits
    Scan type                                : Progressive
    Bits/(Pixel*Frame)                       : 0.189
    Stream size                              : 4.80 GiB (84%)
    Writing library                          : x264 core 129 r2245 bc13772
    Encoding settings                        : cabac=1 / ref=4 / deblock=1:-1:-1 / analyse=0x3:0x133 / me=umh / subme=7 / psy=1 / psy_rd=1.00:0.15 / mixed_ref=1 / me_range=16 / chroma_me=1 / trellis=1 / 8x8dct=1 / cqm=0 / deadzone=21,11 / fast_pskip=0 / chroma_qp_offset=-3 / threads=12 / lookahead_threads=2 / sliced_threads=0 / nr=0 / decimate=1 / interlaced=0 / bluray_compat=0 / constrained_intra=0 / bframes=3 / b_pyramid=2 / b_adapt=1 / b_bias=0 / direct=3 / weightb=1 / open_gop=0 / weightp=2 / keyint=240 / keyint_min=23 / scenecut=40 / intra_refresh=0 / rc_lookahead=40 / rc=2pass / mbtree=1 / bitrate=9063 / ratetol=1.0 / qcomp=0.60 / qpmin=0 / qpmax=69 / qpstep=4 / cplxblur=20.0 / qblur=0.5 / ip_ratio=1.40 / aq=1:1.00
    Default                                  : Yes
    Forced                                   : No

    Audio
    ID                                       : 2
    Format                                   : DTS
    Format/Info                              : Digital Theater Systems
    Mode                                     : 16
    Format settings, Endianness              : Big
    Codec ID                                 : A_DTS
    Duration                                 : 1h 17mn
    Bit rate mode                            : Constant
    Bit rate                                 : 1 509 Kbps
    Channel(s)                               : 6 channels
    Channel positions                        : Front: L C R, Side: L R, LFE
    Sampling rate                            : 48.0 KHz
    Frame rate                               : 93.750 fps (512 spf)
    Bit depth                                : 24 bits
    Compression mode                         : Lossy
    Stream size                              : 838 MiB (14%)
    Language                                 : English
    Default                                  : Yes
    Forced                                   : No








与 GuajGuaj社区 的连接断开,我们正在尝试重连,请耐心等待