[2016][其他][恐怖][WEB-1080P][BT下载]From.a.House.on.Willow.Sree.2016.1080p.WEB-DL.DD5.1.H264-FGT3GB


  • administrators

    ◎译  名 

    ◎片  名 From a House on Willow Street

    ◎年  代 2016

    ◎国  家 南非

    ◎类  别 恐怖

    ◎语  言 英语

    ◎上映日期 2016(美国)

    ◎IMDb评分  7.9/10 from 1,110 users

    ◎IMDb链接  http://www.imdb.com/title/tt4961380/

    ◎BT之家整理 http://www.btbtt.co

    ◎片  长 90分钟

    ◎导  演 Alastair Orr

    ◎主  演 沙妮·文森 Sharni Vinson

          Carlyn Burchell

          Zino Ventura

          Steven John Ward


    ◎简  介


      After a young woman is kidnapped| her captors soon come to realize that in fact they may be the ones in danger and this young woman has a dark secret inside her.



    Video
    ID                                       : 1
    Format                                   : AVC
    Format/Info                              : Advanced Video Codec
    Format profile                           : [email protected]
    Format settings, CABAC                   : Yes
    Format settings, ReFrames                : 5 frames
    Codec ID                                 : V_MPEG4/ISO/AVC
    Duration                                 : 1h 26mn
    Bit rate                                 : 4 505 Kbps
    Width                                    : 1 920 pixels
    Height                                   : 808 pixels
    Display aspect ratio                     : 2.40:1
    Frame rate mode                          : Constant
    Frame rate                               : 23.976 (24000/1001) fps
    Color space                              : YUV
    Chroma subsampling                       : 4:2:0
    Bit depth                                : 8 bits
    Scan type                                : Progressive
    Bits/(Pixel*Frame)                       : 0.121
    Stream size                              : 2.72 GiB (90%)
    Title                                    : From.a.House.on.Willow.Street.2016.1080p.WEB-DL.DD5.1.H264-FGT
    Language                                 : English
    Default                                  : Yes
    Forced                                   : No
    Color range                              : Limited
    Color primaries                          : BT.709
    Transfer characteristics                 : BT.709
    Matrix coefficients                      : BT.709

    Audio
    ID                                       : 2
    Format                                   : AC-3
    Format/Info                              : Audio Coding 3
    Mode extension                           : CM (complete main)
    Format settings, Endianness              : Big
    Codec ID                                 : A_AC3
    Duration                                 : 1h 26mn
    Bit rate mode                            : Constant
    Bit rate                                 : 384 Kbps
    Channel(s)                               : 6 channels
    Channel positions                        : Front: L C R, Side: L R, LFE
    Sampling rate                            : 48.0 KHz
    Frame rate                               : 31.250 fps (1536 spf)
    Compression mode                         : Lossy
    Stream size                              : 238 MiB (8%)
    Title                                    : From.a.House.on.Willow.Street.2016.1080p.WEB-DL.DD5.1.H264-FGT
    Language                                 : English
    Default                                  : Yes
    Forced                                   : No

    Text
    ID                                       : 3
    Format                                   : UTF-8
    Codec ID                                 : S_TEXT/UTF8
    Codec ID/Info                            : UTF-8 Plain Text
    Language                                 : English
    Default                                  : Yes
    Forced                                   : No

    Menu
    00:00:00.000                             : en:1
    00:10:58.000                             : en:2
    00:22:12.000                             : en:3
    00:34:47.000                             : en:4
    00:44:34.000                             : en:5
    00:55:11.000                             : en:6
    01:10:48.000                             : en:7
    01:22:51.000                             : en:8







登录后回复
 

与 GuajGuaj社区 的连接断开,我们正在尝试重连,请耐心等待