[2008][欧美][动作][BD-1080P]牧场工人Ranchero.2008.1080p.BluRay.x264.DTS-FGT7.24GB


  • administrators

    Ranchero.2008.1080p.BluRay.x264.DTS-FGT

    ◎译  名 牧场工人

    ◎片  名 Ranchero

    ◎年  代 2008

    ◎国  家 美国

    ◎类  别 剧情

    ◎语  言 英语

    ◎上映日期 2008-08-13

    ◎IMDb评分  6.9/10 from 96 users

    ◎IMDb链接  http://www.imdb.com/title/tt0867411/

    ◎导  演 Richard Kaponas

    ◎主  演 Roger Gutierrez

          Brian Eric Johnson

          Christina Woods

          丹尼·特雷霍 Danny Trejo

          Ruth Livier

          Jade Gordon


    ◎简  介


             A former ranch hand (Roger Gutierrez) confronts the realities of drug addiction and runs afoul of a local gangster after he moves to Los Angeles.None


    Video
    ID                                       : 1
    Format                                   : AVC
    Format/Info                              : Advanced Video Codec
    Format profile                           : [email protected]
    Format settings, CABAC                   : Yes
    Format settings, ReFrames                : 4 frames
    Codec ID                                 : V_MPEG4/ISO/AVC
    Duration                                 : 1h 31mn
    Bit rate                                 : 10 000 Kbps
    Width                                    : 1 920 pixels
    Height                                   : 1 080 pixels
    Display aspect ratio                     : 16:9
    Frame rate mode                          : Constant
    Frame rate                               : 25.000 fps
    Color space                              : YUV
    Chroma subsampling                       : 4:2:0
    Bit depth                                : 8 bits
    Scan type                                : Progressive
    Bits/(Pixel*Frame)                       : 0.193
    Stream size                              : 6.13 GiB (85%)
    Writing library                          : x264 core 130 r2273 b3065e6
    Encoding settings                        : cabac=1 / ref=3 / deblock=1:0:0 / analyse=0x3:0x113 / me=hex / subme=7 / psy=1 / psy_rd=1.00:0.00 / mixed_ref=1 / me_range=16 / chroma_me=1 / trellis=1 / 8x8dct=1 / cqm=0 / deadzone=21,11 / fast_pskip=1 / chroma_qp_offset=-2 / threads=12 / lookahead_threads=2 / sliced_threads=0 / nr=0 / decimate=1 / interlaced=0 / bluray_compat=0 / constrained_intra=0 / bframes=3 / b_pyramid=2 / b_adapt=1 / b_bias=0 / direct=1 / weightb=1 / open_gop=0 / weightp=2 / keyint=250 / keyint_min=25 / scenecut=40 / intra_refresh=0 / rc_lookahead=40 / rc=abr / mbtree=1 / bitrate=10000 / ratetol=1.0 / qcomp=0.60 / qpmin=0 / qpmax=69 / qpstep=4 / vbv_maxrate=25000 / vbv_bufsize=31250 / nal_hrd=none / ip_ratio=1.40 / aq=1:1.00
    Language                                 : English
    Default                                  : Yes
    Forced                                   : No
    Color range                              : Limited
    Color primaries                          : BT.709
    Transfer characteristics                 : BT.709
    Matrix coefficients                      : BT.709

    Audio
    ID                                       : 2
    Format                                   : DTS
    Format/Info                              : Digital Theater Systems
    Mode                                     : 16
    Format settings, Endianness              : Big
    Codec ID                                 : A_DTS
    Duration                                 : 1h 31mn
    Bit rate mode                            : Constant
    Bit rate                                 : 1 509 Kbps
    Channel(s)                               : 6 channels
    Channel positions                        : Front: L C R, Side: L R, LFE
    Sampling rate                            : 48.0 KHz
    Bit depth                                : 16 bits
    Compression mode                         : Lossy
    Stream size                              : 984 MiB (13%)
    Language                                 : English
    Default                                  : Yes
    Forced                                   : No

    Menu
    00:00:00.000                             : en:Chapter 1
    00:11:03.560                             : en:Chapter 2
    00:22:36.280                             : en:Chapter 3
    00:34:31.640                             : en:Chapter 4
    00:45:22.440                             : en:Chapter 5
    00:56:51.680                             : en:Chapter 6
    01:08:19.840                             : en:Chapter 7
    01:19:02.440                             : en:Chapter 8







与 GuajGuaj社区 的连接断开,我们正在尝试重连,请耐心等待