[2009][欧美][惊悚][WEB-720P][BT下载]家园Dark.Fronier.2009.720p.WEB-DL.DD2.0.H264-FGT2.9GB


  • administrators

    Dark.Frontier.2009.720p.WEB-DL.DD2.0.H264-FGT

    ◎译  名 家园

    ◎片  名 Lucky Country

    ◎年  代 2009

    ◎国  家 澳大利亚

    ◎类  别 剧情/历史/惊悚/西部

    ◎语  言 英语

    ◎IMDb评分  5.4/10 from 205 users

    ◎IMDb链接  http://www.imdb.com/title/tt1270090/

    ◎片  长 96 分钟

    ◎导  演 Kriv Stenders

    ◎主  演 Helmut Bakaitis

          Aden Young

          Hanna Mangan Lawrence


    ◎简  介


      1902....the Australian Federation is a year old. Twelve year-old Tom's beloved father| Nat| has dragged him and his sister| Sarah| to an isolated farm at the edge of
    the woods. But Nat's dream of living off the land has died and he is losing his grip on sanity. When three ex-soldiers arrive at their cabin one night Tom| like his
    father| believes they are providence. But their presence becomes more menacing when one of them reveals a secret: he's found gold. As the lure of gold infects
    everyone around him the cabin becomes a psychological battleground in which Tom's loyalty is put to the ultimate test.


    Video
    ID                                       : 1
    Format                                   : AVC
    Format/Info                              : Advanced Video Codec
    Format profile                           : [email protected]
    Format settings, CABAC                   : No
    Format settings, ReFrames                : 2 frames
    Codec ID                                 : V_MPEG4/ISO/AVC
    Duration                                 : 1h 35mn
    Bit rate                                 : 4 107 Kbps
    Width                                    : 1 280 pixels
    Height                                   : 720 pixels
    Display aspect ratio                     : 16:9
    Frame rate mode                          : Constant
    Frame rate                               : 23.976 fps
    Color space                              : YUV
    Chroma subsampling                       : 4:2:0
    Bit depth                                : 8 bits
    Scan type                                : Progressive
    Bits/(Pixel*Frame)                       : 0.186
    Stream size                              : 2.75 GiB (94%)
    Title                                    : Dark.Frontier.2009.720p.WEB-DL.DD2.0.H264-FGT
    Language                                 : English
    Default                                  : Yes
    Forced                                   : No
    Color range                              : Limited
    Color primaries                          : BT.709
    Transfer characteristics                 : BT.709
    Matrix coefficients                      : BT.709

    Audio
    ID                                       : 2
    Format                                   : AC-3
    Format/Info                              : Audio Coding 3
    Mode extension                           : CM (complete main)
    Format settings, Endianness              : Big
    Codec ID                                 : A_AC3
    Duration                                 : 1h 35mn
    Bit rate mode                            : Constant
    Bit rate                                 : 192 Kbps
    Channel(s)                               : 2 channels
    Channel positions                        : Front: L R
    Sampling rate                            : 48.0 KHz
    Frame rate                               : 31.250 fps (1536 spf)
    Compression mode                         : Lossy
    Stream size                              : 132 MiB (4%)
    Title                                    : Dark.Frontier.2009.720p.WEB-DL.DD2.0.H264-FGT
    Language                                 : English
    Default                                  : No
    Forced                                   : No

    Text
    ID                                       : 3
    Format                                   : UTF-8
    Codec ID                                 : S_TEXT/UTF8
    Codec ID/Info                            : UTF-8 Plain Text
    Language                                 : English
    Default                                  : No
    Forced                                   : No

    Menu
    00:00:00.000                             : en:1
    00:09:15.000                             : en:2
    00:20:07.000                             : en:3
    00:28:11.000                             : en:4
    00:39:19.000                             : en:5
    00:51:30.000                             : en:6
    01:01:17.000                             : en:7
    01:11:46.000                             : en:8
    01:21:26.000                             : en:9
    01:32:07.000                             : en:10







与 GuajGuaj社区 的连接断开,我们正在尝试重连,请耐心等待