[2013][欧美][恐怖][BD-1080P][BT下载]僵尸归来/复活The.Reurned.2013.1080p.BluRay.x264.DTS-FGT7.39GB


  • administrators

    The.Returned.2013.1080p.BluRay.x264.DTS-FGT

    ◎译  名 僵尸归来/复活

    ◎片  名 The Returned

    ◎年  代 2013

    ◎国  家 西班牙/加拿大

    ◎类  别 恐怖

    ◎语  言 西班牙语

    ◎上映日期 2014-02-14(USA)

    ◎IMDb评分  5.9/10 from 6,517 users

    ◎IMDb链接  http://www.imdb.com/title/tt2093270/

    ◎豆瓣评分 5.7/10 from 686 users

    ◎豆瓣链接 https://movie.douban.com/subject/10481115/

    ◎BT之家整理 http://www.btbtt.co

    ◎导  演 Manuel Carballo

    ◎主  演 埃米丽·汉普希尔 Emily Hampshire

          克里斯·霍尔登-里德 Kris Holden-Ried

          肖恩·多伊尔 Shawn Doyle

          克劳迪娅·巴索尔斯 Claudia Bassols

          Paul Anthony

          玛丽娜·号马修斯 Melina Matthews

          保利诺·努内斯 Paulino Nunes


    ◎简  介


      近未来,神秘病毒在全球肆意蔓延,被感染者化身为疯狂嗜血的僵尸,导致数亿人在这场浩劫中丧生。经过苦难而漫长的探索,人类找到暂时对抗病毒的办法。他们向被感染者体内注入合成蛋白质,可有效阻挡病毒对人体的侵蚀。但弊端是治疗费用昂贵,并且要确保终生接受治疗。依靠特效药的帮助,世界重新取回和平,感染者们如愿重返社会,可是他们依然被看作危险人群,遭受了诸多的不公和歧视。

      美丽女子凯特(埃米丽·汉普希尔 Emily Hampshire 饰)供职于一家康复中心,经过耐心的治疗和康复,她帮助许多人走出医院,她的爱人亚历克斯·格林(克里斯·霍尔登-里德 Kris Holden-Ried 饰)也是感染者中间的一员。他们渴望自由、平等,却无法阻止自己被推向边缘……



    Video
    ID                                       : 1
    Format                                   : AVC
    Format/Info                              : Advanced Video Codec
    Format profile                           : [email protected]
    Format settings, CABAC                   : Yes
    Format settings, ReFrames                : 5 frames
    Codec ID                                 : V_MPEG4/ISO/AVC
    Duration                                 : 1h 37mn
    Bit rate                                 : 9 828 Kbps
    Width                                    : 1 920 pixels
    Height                                   : 816 pixels
    Display aspect ratio                     : 2.35:1
    Frame rate mode                          : Constant
    Frame rate                               : 24.000 fps
    Color space                              : YUV
    Chroma subsampling                       : 4:2:0
    Bit depth                                : 8 bits
    Scan type                                : Progressive
    Bits/(Pixel*Frame)                       : 0.261
    Stream size                              : 6.72 GiB (91%)
    Language                                 : English
    Default                                  : Yes
    Forced                                   : No

    Audio
    ID                                       : 2
    Format                                   : DTS
    Format/Info                              : Digital Theater Systems
    Mode                                     : 16
    Format settings, Endianness              : Big
    Codec ID                                 : A_DTS
    Duration                                 : 1h 37mn
    Bit rate mode                            : Constant
    Bit rate                                 : 768 Kbps
    Channel(s)                               : 6 channels
    Channel positions                        : Front: L C R, Side: L R, LFE
    Sampling rate                            : 48.0 KHz
    Frame rate                               : 93.750 fps (512 spf)
    Bit depth                                : 24 bits
    Compression mode                         : Lossy
    Stream size                              : 538 MiB (7%)
    Language                                 : English
    Default                                  : Yes
    Forced                                   : No

    Text
    ID                                       : 3
    Format                                   : UTF-8
    Codec ID                                 : S_TEXT/UTF8
    Codec ID/Info                            : UTF-8 Plain Text
    Language                                 : English
    Default                                  : No
    Forced                                   : No

    Menu
    00:00:00.000                             : en:00:00:00.000
    00:08:15.833                             : en:00:08:15.833
    00:15:57.958                             : en:00:15:57.958
    00:24:25.667                             : en:00:24:25.667
    00:31:46.167                             : en:00:31:46.167
    00:39:19.667                             : en:00:39:19.667
    00:47:25.833                             : en:00:47:25.833
    00:55:44.625                             : en:00:55:44.625
    01:10:24.375                             : en:01:10:24.375
    01:17:47.208                             : en:01:17:47.208
    01:25:02.042                             : en:01:25:02.042
    01:32:38.542                             : en:01:32:38.542






登录后回复
 

与 GuajGuaj社区 的连接断开,我们正在尝试重连,请耐心等待