[更早][日本][动画][BD-1080P][BT下载]攻壳机动队Ghos.in.he.Shell.1995.1080p.BluRay.x264.DD2.0-FGT10.4GB


  • administrators

    ◎译  名 攻壳机动队

    ◎片  名 攻殻機動隊

    ◎年  代 1995

    ◎国  家 日本

    ◎类  别 动作/科幻/动画/悬疑

    ◎语  言 日语

    ◎上映日期 1995-11-18(日本)

    ◎IMDb评分  8.0/10 from 86,875 users

    ◎IMDb链接  http://www.imdb.com/title/tt0113568/

    ◎豆瓣评分 8.9/10 from 44,824 users

    ◎豆瓣链接 https://movie.douban.com/subject/1291936/

    ◎片  长 83分钟

    ◎导  演 押井守 Mamoru Oshii

    ◎主  演 田中敦子 Atsuko Tanaka

          大冢明夫 Akio Ôtsuka

          山寺宏一 Kôichi Yamadera

          大木民夫 Tamio Ôki

          家弓家正 Iemasa Kayumi

          仲野裕


    ◎简  介


      公元2029年,未来世界是高科技与信息化的世界。人类生活水平的提高伴随着犯罪活动的高科技化,于是,专门镇压高科技犯罪的特殊部队——公安9课成立了。队长草薙素子,作为一位全身“义体化”的女警,带领公安9课不断展开行动。

      是次,公安9课帮助公安6课秘密解决了一位程序员外逃他国的麻烦琐事,又卷入传说中的黑客“傀儡师”的犯罪事件。当行动陷入僵局之际,傀儡师竟然不请自来,出现在公安9课!素子与她的战友们,不知不觉地被卷入了一场涉及政府的阴谋之中。



    Video
    ID                                       : 1
    Format                                   : AVC
    Format/Info                              : Advanced Video Codec
    Format profile                           : [email protected]
    Format settings, CABAC                   : Yes
    Format settings, ReFrames                : 4 frames
    Codec ID                                 : V_MPEG4/ISO/AVC
    Duration                                 : 1h 22mn
    Bit rate                                 : 16.5 Mbps
    Width                                    : 1 856 pixels
    Height                                   : 1 004 pixels
    Display aspect ratio                     : 1.85:1
    Frame rate mode                          : Constant
    Frame rate                               : 23.976 (24000/1001) fps
    Color space                              : YUV
    Chroma subsampling                       : 4:2:0
    Bit depth                                : 8 bits
    Scan type                                : Progressive
    Bits/(Pixel*Frame)                       : 0.368
    Stream size                              : 9.50 GiB (91%)
    Writing library                          : x264 core 138 r2358 9e941d1
    Encoding settings                        : cabac=1 / ref=4 / deblock=1:-3:-3 / analyse=0x3:0x133 / me=tesa / subme=11 / psy=1 / psy_rd=1.00:0.00 / mixed_ref=1 / me_range=48 / chroma_me=1 / trellis=2 / 8x8dct=1 / cqm=0 / deadzone=21,11 / fast_pskip=0 / chroma_qp_offset=-2 / threads=6 / lookahead_threads=1 / sliced_threads=0 / nr=0 / decimate=1 / interlaced=0 / bluray_compat=0 / constrained_intra=0 / bframes=10 / b_pyramid=2 / b_adapt=2 / b_bias=0 / direct=3 / weightb=1 / open_gop=0 / weightp=2 / keyint=250 / keyint_min=23 / scenecut=40 / intra_refresh=0 / rc_lookahead=60 / rc=crf / mbtree=1 / crf=17.5 / qcomp=0.60 / qpmin=0 / qpmax=69 / qpstep=4 / ip_ratio=1.40 / aq=1:1.20
    Language                                 : English
    Default                                  : Yes
    Forced                                   : No

    Audio #1
    ID                                       : 2
    Format                                   : AC-3
    Format/Info                              : Audio Coding 3
    Format profile                           : Dolby Digital
    Mode extension                           : CM (complete main)
    Format settings, Endianness              : Big
    Codec ID                                 : A_AC3
    Duration                                 : 1h 22mn
    Bit rate mode                            : Constant
    Bit rate                                 : 640 Kbps
    Channel(s)                               : 2 channels
    Channel positions                        : Front: L R
    Sampling rate                            : 48.0 KHz
    Frame rate                               : 31.250 fps (1536 spf)
    Compression mode                         : Lossy
    Stream size                              : 378 MiB (4%)
    Language                                 : English
    Default                                  : Yes
    Forced                                   : No

    Audio #2
    ID                                       : 3
    Format                                   : AC-3
    Format/Info                              : Audio Coding 3
    Mode extension                           : CM (complete main)
    Format settings, Endianness              : Big
    Codec ID                                 : A_AC3
    Duration                                 : 1h 22mn
    Bit rate mode                            : Constant
    Bit rate                                 : 640 Kbps
    Channel(s)                               : 2 channels
    Channel positions                        : Front: L R
    Sampling rate                            : 48.0 KHz
    Frame rate                               : 31.250 fps (1536 spf)
    Compression mode                         : Lossy
    Stream size                              : 378 MiB (4%)
    Language                                 : Japanese
    Default                                  : No
    Forced                                   : No

    Text
    ID                                       : 4
    Format                                   : UTF-8
    Codec ID                                 : S_TEXT/UTF8
    Codec ID/Info                            : UTF-8 Plain Text
    Language                                 : English
    Default                                  : Yes
    Forced                                   : No

    Menu
    00:00:00.000                             : en:Thermo Optic Camouflage
    00:04:06.162                             : en:Opening Credits
    00:08:24.754                             : en:The Infamous Mystery Hacker
    00:13:15.169                             : en:Ghost Hack Humans
    00:24:17.706                             : en:Only a Puppet
    00:26:05.063                             : en:Simultaneous Reality and Fantasy
    00:27:40.158                             : en:Hope in Deep Waters
    00:33:02.981                             : en:Wandering the City
    00:36:21.512                             : enoubting Your Own Ghost
    00:45:32.271                             : enroject 2501
    00:53:59.486                             : en:Chasing the Target
    00:59:40.410                             : en:Kusanagi Battles Tank
    01:06:24.355                             : en:Unification
    01:13:58.434                             : en:Reincarnation
    01:17:31.480                             : en:Closing Credits
    01:22:52.968                             : en:Blank







与 GuajGuaj社区 的连接断开,我们正在尝试重连,请耐心等待